<?xml version="1.0" standalone="no"?>
<!DOCTYPE svg PUBLIC "-//W3C//DTD SVG 1.1//EN" "http://www.w3.org/Graphics/SVG/1.1/DTD/svg11.dtd" >
<svg>
<metadata>
Created by FontForge 20090914 at Mon Dec  2 06:20:59 2019
 By www-data
Copyright (c) 2008 by Jos Buivenga. All rights reserved.
</metadata>
<defs>
<font id="MuseoSans-300" horiz-adv-x="1064" >
  <font-face 
    font-family="MuseoSans"
    font-weight="300"
    font-stretch="normal"
    units-per-em="2048"
    panose-1="2 0 0 0 0 0 0 0 0 0"
    ascent="1536"
    descent="-512"
    x-height="1030"
    cap-height="1440"
    bbox="-113 -430 1860 1808"
    underline-thickness="102"
    underline-position="-102"
    unicode-range="U+000D-U+E000"
  />
<missing-glyph horiz-adv-x="748" 
d="M68 0v1365h544v-1365h-544zM136 68h408v1229h-408v-1229z" />
    <glyph glyph-name=".notdef" horiz-adv-x="748" 
d="M68 0v1365h544v-1365h-544zM136 68h408v1229h-408v-1229z" />
    <glyph glyph-name="glyph1" horiz-adv-x="2048" 
 />
    <glyph glyph-name="glyph1" horiz-adv-x="2048" 
 />
    <glyph glyph-name="uni000D" unicode="&#xd;" horiz-adv-x="681" 
 />
    <glyph glyph-name="space" unicode=" " horiz-adv-x="550" 
 />
    <glyph glyph-name="exclam" unicode="!" horiz-adv-x="628" 
d="M238 0v158h157v-158h-157zM242 1440h143l-6 -1063h-131z" />
    <glyph glyph-name="quotedbl" unicode="&#x22;" horiz-adv-x="651" 
d="M141 1114v346h121v-346h-121zM389 1114v346h121v-346h-121z" />
    <glyph glyph-name="numbersign" unicode="#" horiz-adv-x="1482" 
d="M96 399l21 115h289l71 401h-289l19 115h291l71 410h125l-71 -410h354l72 410h125l-72 -410h287l-21 -115h-287l-69 -401h284l-18 -115h-287l-69 -399h-125l69 399h-354l-70 -399h-125l70 399h-291zM532 514h353l71 401h-354z" />
    <glyph glyph-name="dollar" unicode="$" horiz-adv-x="1140" 
d="M125 160l85.9971 108.001l17 -17c4.66699 -4.66699 21.334 -17.334 50.001 -38.001c22 -15.333 48 -31 78 -47c22.667 -12 57.667 -24.667 105 -38c39.333 -11.333 81.666 -17 126.999 -17c82.667 0 151 22.667 205 68c54.667 46 82 106.333 82 181c0 64 -25 119 -75 165
c-49.333 45.333 -109.666 83.666 -180.999 114.999l-213 95c-71.333 33.333 -132 78.333 -182 135c-49.333 56 -74 125 -74 207c0 96.667 34.667 180.667 104 252c70 72 160.667 115 272 129v195h115v-191c66.667 -4 128 -17.333 184 -40c60 -24 100.333 -46 121 -66l37 -31
l-70 -119c-9.33301 9.33301 -23 21 -41 35c-15.333 12 -51.666 30 -108.999 54c-54 22.667 -109 34 -165 34c-89.333 0 -162.333 -24.667 -219 -74c-56 -48.667 -84 -106.667 -84 -174c0 -49.333 17.667 -94.333 53 -135c34.667 -39.333 79.334 -70.666 134.001 -93.999
l174 -79c58 -27.333 116 -57 174 -89c55.333 -30.667 100.333 -73.334 135 -128.001c35.333 -55.333 53 -119 53 -191c0 -101.333 -34.333 -188.333 -103 -261c-68 -72 -159.333 -113.333 -274 -124v-191h-115v191c-75.333 4.66699 -147 22.334 -215 53.001
c-65.333 29.333 -113 58 -143 86z" />
    <glyph glyph-name="percent" unicode="%" horiz-adv-x="1495" 
d="M115 1180c0 77.333 28 144 84 200s123.333 84 202 84c79.333 0 147.333 -28 204 -84s85 -122.667 85 -200c0 -80 -28 -147.333 -84 -202c-56.667 -55.333 -125 -83 -205 -83c-78 0 -145.333 27.667 -202 83c-56 54.667 -84 122 -84 202zM127 0l1098 1440h145l-1096 -1440
h-147zM236 1180c0 -48 15.999 -88.333 47.999 -121s71 -49 117 -49c46.667 0 86.334 16.333 119.001 49s49 73 49 121c0 46.667 -16.333 86.334 -49 119.001c-34 34 -73.667 51 -119 51s-84.333 -17 -117 -51c-32 -32.667 -48 -72.334 -48 -119.001zM806.999 258
c0 79.333 28 147 84 203s123.667 84 203 84c78.667 0 146.334 -28 203.001 -84s85 -123.667 85 -203c0 -78.667 -28.333 -145.334 -85 -200.001c-57.333 -55.333 -125 -83 -203 -83c-78.667 0 -146.334 27.667 -203.001 83c-56 54.667 -84 121.334 -84 200.001zM929.999 260
c0 -47.333 15.666 -87.666 46.999 -120.999c30.667 -32.667 69.667 -49 117 -49c46 0 85.333 16.333 118 49c33.333 33.333 50 73.666 50 120.999c0 46.667 -16.667 86.667 -50 120s-72.666 50 -117.999 50c-46.667 0 -85.667 -16.667 -117 -50s-47 -73.333 -47 -120z" />
    <glyph glyph-name="ampersand" unicode="&#x26;" horiz-adv-x="1380" 
d="M123 397c0 85.333 23.3291 163.999 69.9961 235.999c45.333 70 109.333 117.667 192 143v4c-3.33301 0.666992 -10.333 3.33398 -21 8.00098c-8 3.33301 -24.333 13.666 -49 30.999c-20.667 14.667 -41 34 -61 58c-18.667 22.667 -34.667 53.334 -48 92.001
c-14.667 42 -22 85.667 -22 131c0 110.667 39.333 199 118 265s183.334 99 314.001 99c18 0 42 -1.66699 72 -5c29.333 -3.33301 51.333 -6.33301 66 -9l26 -6l-41 -119c-42 9.33301 -81.333 14 -118 14c-83.333 0 -152.333 -22 -207 -66s-82 -104.333 -82 -181
c0 -30.667 3.66699 -58 11 -82c8.66699 -28.667 22.334 -56.334 41.001 -83.001c20.667 -30 52.667 -53.333 96 -70c44.667 -17.333 98.334 -26 161.001 -26h303v203h141v-203h195v-126h-195v-211c0 -167.333 -42.667 -295.666 -128 -384.999s-201.666 -134 -348.999 -134
c-143.333 0 -260 40 -350 120s-135 180.667 -135 302zM267.996 405.999c0 -84 30.665 -154.667 91.998 -212c60.667 -56.667 143.334 -85 248.001 -85c224 0 336 129.667 336 389v207h-303c-121.333 0 -213.666 -26.667 -276.999 -80c-64 -54 -96 -127 -96 -219z" />
    <glyph glyph-name="quotesingle" unicode="'" horiz-adv-x="403" 
d="M141 1114v346h121v-346h-121z" />
    <glyph glyph-name="parenleft" unicode="(" horiz-adv-x="593" 
d="M164 690c0 285.333 77 553.667 231 805h129c-154 -260.667 -231 -529 -231 -805c0 -313.333 77 -608.333 231 -885h-129c-154 264.667 -231 559.667 -231 885z" />
    <glyph glyph-name="parenright" unicode=")" horiz-adv-x="591" 
d="M70 -195c154 274 231 569 231 885c0 276 -77 544.333 -231 805h129c154 -250.667 231 -519 231 -805c0 -325.333 -77 -620.333 -231 -885h-129z" />
    <glyph glyph-name="asterisk" unicode="*" horiz-adv-x="964" 
d="M88 1104l41 129l295 -109l-12 316h139l-14 -316l299 107l41 -125l-304 -88v-4l193 -246l-107 -80l-176 260h-4l-174 -258l-108 78l192 246v4z" />
    <glyph glyph-name="plus" unicode="+" horiz-adv-x="1409" 
d="M170 522v119h473v522h125v-522h471v-119h-471v-522h-125v522h-473z" />
    <glyph glyph-name="comma" unicode="," horiz-adv-x="499" 
d="M74 -199l116 367h154l-151 -367h-119z" />
    <glyph glyph-name="hyphen" unicode="-" horiz-adv-x="1007" 
d="M213 518v127h582v-127h-582z" />
    <glyph glyph-name="period" unicode="." horiz-adv-x="505" 
d="M172 0v164h162v-164h-162z" />
    <glyph glyph-name="slash" unicode="/" horiz-adv-x="802" 
d="M84 -86l520 1606h129l-518 -1606h-131z" />
    <glyph glyph-name="zero" unicode="0" horiz-adv-x="1280" 
d="M143 721c0 145.333 14.667 271.667 44 379c28.667 106 81.667 193.333 159 262c76 68 174.333 102 295 102c330.667 0 496 -247.667 496 -743c0 -497.333 -165.333 -746 -496 -746c-332 0 -498 248.667 -498 746zM291 721.001c0 -408 116.667 -612 350 -612
c232 0 348 204 348 612c0 406.667 -116 610 -348 610c-233.333 0 -350 -203.333 -350 -610z" />
    <glyph glyph-name="one" unicode="1" horiz-adv-x="954" 
d="M115 0l0.000976562 127h323v1057l2 80h-4c-10.667 -22 -34.334 -50.667 -71.001 -86l-154 -154l-90 92l325 324h132v-1313h317v-127h-780z" />
    <glyph glyph-name="two" unicode="2" horiz-adv-x="1157" 
d="M123 92c0 68 13.666 131.998 40.999 191.998c26.667 58.667 61.667 109.667 105 153s91.333 84.333 144 123l157 112c51.333 34 99.333 69.667 144 107c42.667 36 77.667 77.667 105 125s41 97 41 149c0 80 -27.667 146 -83 198s-127.333 78 -216 78
c-42 0 -80 -6.66699 -114 -20c-36 -14 -66.333 -30.333 -91 -49c-21.333 -16.667 -42.666 -36 -63.999 -58c-20 -21.333 -33.333 -37.666 -40 -48.999l-12 -20l-107 71l17 28c6.66699 11.333 23 32 49 62c27.333 31.333 55.666 58 84.999 80
c33.333 24.667 74.333 45.667 123 63c51.333 18 105.333 27 162 27c134 0 240.667 -38 320 -114s119 -172.333 119 -289c0 -66 -13.333 -127 -40 -183c-26.667 -56.667 -61.667 -106 -105 -148c-41.333 -40 -88.666 -79.667 -141.999 -119l-155 -108
c-48.667 -33.333 -95.667 -69 -141 -107c-44 -37.333 -79.333 -78.333 -106 -123c-26.667 -45.333 -40 -94 -40 -146h751v-127h-899c-5.33301 30.667 -8 61.334 -8 92.001z" />
    <glyph glyph-name="three" unicode="3" horiz-adv-x="1150" 
d="M92 172l86.002 109c16 -17.333 31.667 -33.333 47 -48c19.333 -18.667 61.666 -43.667 126.999 -75c64.667 -31.333 129.667 -47 195 -47c88.667 0 165.667 29.333 231 88c66 59.333 99 133.666 99 222.999c0 96 -35.333 171.333 -106 226c-70 54 -155.667 81 -257 81
h-98l-35 84l360 422l76 80v4c-27.333 -4 -66.333 -6 -117 -6h-540v127h841v-94l-430 -496c52.667 -3.33301 102.334 -12.666 149.001 -27.999c50 -16.667 97.667 -40 143 -70c48 -31.333 86.333 -75 115 -131c29.333 -56.667 44 -121.667 44 -195c0 -124 -45 -230 -135 -318
c-90.667 -88.667 -203.334 -133 -338.001 -133c-52.667 0 -104.667 7 -156 21c-50.667 14 -93.334 30.333 -128.001 49c-35.333 19.333 -66.333 38.333 -93 57c-24.667 17.333 -45 34 -61 50z" />
    <glyph glyph-name="four" unicode="4" horiz-adv-x="1222" 
d="M70 399v93l708 948h154v-916h205v-125h-205v-399h-141v399h-721zM242 524h549v602l6 136h-4c-23.333 -40.667 -47.333 -77 -72 -109l-479 -625v-4z" />
    <glyph glyph-name="five" unicode="5" horiz-adv-x="1142" 
d="M111 180l90 99.002c3.33301 -4 7.33301 -10 12 -18c2 -3.33301 15 -17 39 -41c19.333 -19.333 41 -36.333 65 -51c24.667 -15.333 55.334 -28.666 92.001 -39.999c38 -12 77 -18 117 -18c101.333 0 186.333 32 255 96c69.333 64 104 144.667 104 242
c0 96.667 -35 177 -105 241s-156.667 96 -260 96c-46 0 -90.333 -6.33301 -133 -19s-74.667 -25.334 -96 -38.001l-33 -20l-90 32l78 699h696v-127h-573l-41 -369l-15 -82h4c60.667 37.333 134 56 220 56c142 0 260.333 -45.667 355 -137
c93.333 -90.667 140 -201.334 140 -332.001c0 -132.667 -48 -244.667 -144 -336c-97.333 -92 -216 -138 -356 -138c-51.333 0 -102 7.33301 -152 22s-90 31.667 -120 51c-32.667 20.667 -60.334 40.667 -83.001 60c-23.333 19.333 -40 36.666 -50 51.999z" />
    <glyph glyph-name="six" unicode="6" horiz-adv-x="1218" 
d="M133 651c0 93.333 12.668 186.999 38.001 280.999c24 88.667 61 175.334 111 260.001c47.333 80 113.333 145.667 198 197c82.667 50 178 75 286 75c47.333 0 93 -5 137 -15s76 -20 96 -30l31 -14l-53 -125c-60 34 -129.667 51 -209 51c-96 0 -179.667 -29.333 -251 -88
c-72 -59.333 -126 -130.666 -162 -213.999c-36 -84 -58 -175.667 -66 -275h4c33.333 50 83.666 90.667 150.999 122c66 30.667 137 46 213 46c131.333 0 239 -43.333 323 -130s126 -198.334 126 -335.001c0 -147.333 -43 -264.333 -129 -351
c-86 -87.333 -194 -131 -324 -131c-155.333 0 -281 63.667 -377 191c-95.333 126 -143 287.667 -143 485zM287.001 548.999c0 -104 35.332 -203.333 105.999 -298s156.667 -142 258 -142c96.667 0 172.334 32.333 227.001 97c55.333 65.333 83 148.333 83 249
s-30 182.667 -90 246c-59.333 62.667 -138 94 -236 94c-92.667 0 -174 -26 -244 -78c-69.333 -51.333 -104 -107.333 -104 -168z" />
    <glyph glyph-name="seven" unicode="7" 
d="M78 1313l0.000976562 127h936v-99l-668 -1341h-147l581 1180c11.333 24 23.666 46.333 36.999 67l31 49l12 17v4c-22 -2.66699 -58 -4 -108 -4h-674z" />
    <glyph glyph-name="eight" unicode="8" horiz-adv-x="1232" 
d="M131 414c0 51.333 10.332 102.333 30.999 153c20 49.333 45.667 90.666 77 123.999c38 40.667 63 66 75 76c16.667 14.667 34.334 28 53.001 40c-119.333 78 -179 175.667 -179 293c0 101.333 38 187.333 114 258c75.333 70.667 182.333 106 321 106
c133.333 0 240 -34 320 -102s120 -158.667 120 -272c0 -61.333 -15 -124.666 -45 -189.999c-28.667 -62 -54 -107.333 -76 -136c-20 -26 -38.333 -47.333 -55 -64c139.333 -79.333 209 -182.333 209 -309c0 -114.667 -45.667 -212.667 -137 -294s-205 -122 -341 -122
c-134.667 0 -249.667 40 -345 120c-94.667 80 -142 186.333 -142 319zM275.999 420c0 -92 34.3291 -167.333 102.996 -226s148.334 -88 239.001 -88c90 0 167.667 27.333 233 82c66 55.333 99 123.666 99 204.999c0 35.333 -8.33301 67.333 -25 96
c-16.667 28 -43.667 54.667 -81 80c-34.667 23.333 -68.667 43.666 -102 60.999c-24 12.667 -68 32.334 -132 59.001c-67.333 28.667 -109.666 47.334 -126.999 56.001c-23.333 -14.667 -40.666 -27 -51.999 -37c-16 -14 -38 -35.667 -66 -65
c-27.333 -28.667 -48.666 -62 -63.999 -100c-16.667 -42 -25 -83 -25 -123zM331.995 1098c0 -30.667 6.66895 -59 20.002 -85c14 -27.333 29 -49.333 45 -66s42.333 -35.334 79 -56.001c34 -18.667 62.667 -33.667 86 -45c17.333 -8 52.666 -23 105.999 -45l102 -43
c18.667 17.333 36 36.333 52 57c20 25.333 41 63 63 113c23.333 52.667 35 104.334 35 155.001c0 76.667 -27.667 137.667 -83 183c-54.667 44.667 -126 67 -214 67c-88.667 0 -159.334 -22.333 -212.001 -67s-79 -100.667 -79 -168z" />
    <glyph glyph-name="nine" unicode="9" horiz-adv-x="1216" 
d="M113 983c0 146 42.668 262.667 128.001 350s192.666 131 321.999 131c155.333 0 281 -63.333 377 -190c95.333 -126 143 -288 143 -486c0 -95.333 -12.333 -188.333 -37 -279c-24 -89.333 -61 -176 -111 -260c-47.333 -80.667 -113.666 -146.667 -198.999 -198
c-83.333 -50.667 -178.333 -76 -285 -76c-47.333 0 -93 5 -137 15c-48 10.667 -80.333 20.667 -97 30l-31 15l54 125c60 -34 129.667 -51 209 -51c139.333 0 250.666 57 333.999 171s132.333 249.333 147 406h-4c-34 -49.333 -85.333 -90 -154 -122
c-66 -30.667 -137 -46 -213 -46c-131.333 0 -238.333 43.333 -321 130c-83.333 87.333 -125 199 -125 335zM256.001 985c0 -102 29.668 -184.332 89.001 -246.999c59.333 -62 138.333 -93 237 -93c93.333 0 174.666 26 243.999 78s104 108 104 168
c0 103.333 -35.667 202.666 -107 297.999c-70.667 94.667 -156.667 142 -258 142c-96 0 -171.333 -32.333 -226 -97c-55.333 -65.333 -83 -148.333 -83 -249z" />
    <glyph glyph-name="colon" unicode=":" horiz-adv-x="600" 
d="M219 0v164h162v-164h-162zM219 866v164h162v-164h-162z" />
    <glyph glyph-name="semicolon" unicode=";" horiz-adv-x="600" 
d="M127 -199l100 367h154l-135 -367h-119zM227 866v164h162v-164h-162z" />
    <glyph glyph-name="less" unicode="&#x3c;" horiz-adv-x="1161" 
d="M102 530v103l926 414v-138l-752 -325v-4l752 -326v-137z" />
    <glyph glyph-name="equal" unicode="=" horiz-adv-x="1400" 
d="M223 344v119h955v-119h-955zM223 700v119h955v-119h-955z" />
    <glyph glyph-name="greater" unicode="&#x3e;" horiz-adv-x="1161" 
d="M133 117v137l752 326v4l-752 325v138l926 -414v-103z" />
    <glyph glyph-name="question" unicode="?" horiz-adv-x="985" 
d="M82 1350l40.999 30.999c18.667 13.333 56.334 31 113.001 53c55.333 21.333 114 32 176 32c117.333 0 215 -34 293 -102c77.333 -67.333 116 -154 116 -260c0 -61.333 -12.667 -118 -38 -170c-24.667 -50 -55 -92 -91 -126l-107 -97c-36 -31.333 -66.667 -68 -92 -110
c-25.333 -42.667 -38 -88 -38 -136v-88h-140v92c0 60.667 12.333 115.334 37 164.001c25.333 50 55.333 91.333 90 124l106 97c33.333 29.333 63 66 89 110c24.667 41.333 37 86 37 134c0 67.333 -25.333 123.333 -76 168s-114.667 67 -192 67c-40.667 0 -82 -7 -124 -21
c-42.667 -14 -74 -28.667 -94 -44l-30 -23zM306.999 -0.000976562v158h158v-158h-158z" />
    <glyph glyph-name="at" unicode="@" horiz-adv-x="1648" 
d="M133 496c0 209.333 71.334 386.666 214.001 531.999c143.333 146 315 219 515 219c173.333 0 300 -36.667 380 -110c81.333 -74 122 -166.333 122 -277v-645h145v-115h-551c-114.667 0 -211.667 38.667 -291 116c-78.667 76.667 -118 169.334 -118 278.001
c0 108 39 200.333 117 277c78.667 77.333 176 116 292 116h267c-3.33301 68.667 -34 125.667 -92 171s-145 68 -261 68c-166.667 0 -307.334 -61.667 -422.001 -185c-116 -125.333 -174 -273.666 -174 -444.999c0 -175.333 58 -324 174 -446
c114.667 -120.667 259 -181 433 -181v-123c-212 0 -390 72.667 -534 218s-216 322.666 -216 531.999zM692.001 496c0 -77.333 27 -143.668 81 -199.001c54 -54.667 120 -82 198 -82h254v563h-250c-80.667 0 -148 -27.667 -202 -83s-81 -121.666 -81 -198.999z" />
    <glyph glyph-name="A" unicode="A" horiz-adv-x="1261" 
d="M27 0l528 1440h152l528 -1440h-150l-165 459h-580l-164 -459h-149zM381 582h496.001l-189 522l-55 186h-4c-16.667 -66 -35.334 -128 -56.001 -186z" />
    <glyph glyph-name="B" unicode="B" horiz-adv-x="1282" 
d="M209 0l-0.000976562 1440h491c116 0 210 -33 282 -99s108 -154 108 -264c0 -147.333 -61 -251.666 -183 -312.999v-4c72.667 -20 131.334 -62.667 176.001 -128c44 -65.333 66 -141.666 66 -228.999c0 -124 -41 -222 -123 -294c-82.667 -72.667 -185.667 -109 -309 -109
h-508zM349.999 126.998h369.001c87.333 0 156.333 25.333 207 76c50 50 75 118.333 75 205c0 86 -26 154.667 -78 206c-52.667 52 -121.334 78 -206.001 78h-367v-565zM350 814.998h350c72.667 0 131.667 23.333 177 70c44.667 45.333 67 106 67 182
s-21.667 135.667 -65 179c-44.667 44.667 -105 67 -181 67h-348v-498z" />
    <glyph glyph-name="C" unicode="C" horiz-adv-x="1490" 
d="M113 729c0 209.333 68.665 383.998 205.998 523.998c138 140.667 310.333 211 517 211c66 0 127.667 -6.33301 185 -19c60.667 -13.333 109.334 -28.666 146.001 -45.999c42 -20 76 -38 102 -54c22 -14 43.333 -29.667 64 -47l21 -20l-76 -104
c-1.33301 1.33301 -4.33301 3.83301 -9 7.5s-8.33398 6.83398 -11.001 9.50098c-9.33301 8 -28.333 21 -57 39c-27.333 16.667 -57.666 32.667 -90.999 48c-26.667 12 -67 24.667 -121 38c-46 11.333 -95.667 17 -149 17c-168 0 -306.667 -57.667 -416 -173
s-164 -258.333 -164 -429c0 -174 55 -321.667 165 -443s249.667 -182 419 -182c53.333 0 106.666 6.66699 159.999 20c52.667 13.333 96.334 29.333 131.001 48c36.667 20 68.334 39 95.001 57c24.667 16.667 44.667 32.667 60 48l21 20l82 -100l-24 -24
c-7.33301 -7.33301 -30.333 -25.333 -69 -54c-36.667 -27.333 -74 -50 -112 -68c-42 -20 -93.333 -37.667 -154 -53c-65.333 -16.667 -129.333 -25 -192 -25c-210.667 0 -385 72.667 -523 218c-137.333 144 -206 322.667 -206 536z" />
    <glyph glyph-name="D" unicode="D" horiz-adv-x="1515" 
d="M209 0v1440h465c218 0 393 -64 525 -192s198 -303.667 198 -527c0 -226.667 -65.667 -403.667 -197 -531c-130.667 -126.667 -306 -190 -526 -190h-465zM350 127l309 -0.000976562c180.667 0 324.334 51.667 431.001 155c106 102.667 159 249 159 439
c0 188.667 -53 334.334 -159 437.001c-106.667 103.333 -250.334 155 -431.001 155h-309v-1186z" />
    <glyph glyph-name="E" unicode="E" horiz-adv-x="1169" 
d="M209 0v1440h811v-127h-670v-525h547v-126h-547v-535h707v-127h-848z" />
    <glyph glyph-name="F" unicode="F" horiz-adv-x="1052" 
d="M209 0v1440h758v-127h-617v-541h529v-127h-529v-645h-141z" />
    <glyph glyph-name="G" unicode="G" horiz-adv-x="1552" 
d="M113 721c0 209.333 69.335 385.333 208.002 528c139.333 143.333 311.666 215 516.999 215c98.667 0 190.334 -14 275.001 -42c85.333 -28 145.666 -55.667 180.999 -83l56 -43l-76 -106c-10.667 10 -28.667 23.333 -54 40c-20 13.333 -69.333 34.333 -148 63
c-73.333 26.667 -149.333 40 -228 40c-172 0 -312.333 -58.333 -421 -175s-163 -261.667 -163 -435c0 -177.333 54.333 -324.333 163 -441c109.333 -117.333 245.333 -176 408 -176c81.333 0 160.666 18 237.999 54c74.667 34.667 129.334 70 164.001 106l51 51v244h-246
v127h381v-688h-131v109l2 61h-4c-8 -10 -14.333 -17.333 -19 -22c-6.66699 -6.66699 -26.334 -22 -59.001 -46c-28 -20 -59.667 -39.333 -95 -58c-34 -17.333 -77.667 -33 -131 -47c-56.667 -14.667 -111.667 -22 -165 -22c-198 0 -365 71 -501 213
c-135.333 141.333 -203 319 -203 533z" />
    <glyph glyph-name="H" unicode="H" horiz-adv-x="1536" 
d="M209 0v1440h141v-656h836v656h141v-1440h-141v657h-836v-657h-141z" />
    <glyph glyph-name="I" unicode="I" horiz-adv-x="559" 
d="M209 0v1440h141v-1440h-141z" />
    <glyph glyph-name="J" unicode="J" horiz-adv-x="1073" 
d="M72 403l0.000976562 58h141v-53c0 -102.667 25.667 -178.667 77 -228s113.666 -74 186.999 -74c72.667 0 134.667 24 186 72c50.667 48 76 123 76 225v910h-352v127h494v-1037c0 -144.667 -39.667 -252 -119 -322c-80 -70.667 -175.667 -106 -287 -106
c-110.667 0 -205.667 35.667 -285 107c-78.667 70.667 -118 177.667 -118 321z" />
    <glyph glyph-name="K" unicode="K" horiz-adv-x="1230" 
d="M209 0v1440h141v-625h244l387 625h162l-430 -680v-4l458 -756h-165l-412 688h-244v-688h-141z" />
    <glyph glyph-name="L" unicode="L" horiz-adv-x="1060" 
d="M209 0v1440h141v-1313h668v-127h-809z" />
    <glyph glyph-name="M" unicode="M" horiz-adv-x="1748" 
d="M164 0l114.998 1440h147l377 -846l69 -176h5c30.667 80 54.334 138.667 71.001 176l377 846h145l115 -1440h-141l-80 1008l-4 200h-4c-29.333 -85.333 -54.666 -152 -75.999 -200l-338 -740h-133l-338 740l-78 204h-4c0.666992 -22 1 -42.667 1 -62
c0 -58.667 -1.66699 -106 -5 -142l-80 -1008h-141z" />
    <glyph glyph-name="N" unicode="N" horiz-adv-x="1542" 
d="M209 0v1440h137l735 -1037l119 -194h4c-8 78.667 -12 143.334 -12 194.001v1037h141v-1440h-137l-735 1036l-119 195h-4c8 -79.333 12 -144.333 12 -195v-1036h-141z" />
    <glyph glyph-name="O" unicode="O" horiz-adv-x="1687" 
d="M111 729c0 206 71 380 213 522s315.333 213 520 213s378 -71 520 -213s213 -316 213 -522c0 -210.667 -71.333 -388.667 -214 -534c-143.333 -146.667 -316.333 -220 -519 -220s-375.667 73.333 -519 220c-142.667 145.333 -214 323.333 -214 534zM258 729
c0 -174 56.667 -321.333 170 -442s252 -181 416 -181c161.333 0 299.333 60.333 414 181s172 268 172 442c0 170 -57.333 313.333 -172 430c-114 116 -252 174 -414 174c-164 0 -302.667 -58 -416 -174c-113.333 -116.667 -170 -260 -170 -430z" />
    <glyph glyph-name="P" unicode="P" horiz-adv-x="1224" 
d="M209 0l0.000976562 1440h498c130 0 236.667 -39.667 320 -119c82.667 -78.667 124 -183.667 124 -315c0 -132.667 -41.333 -239.334 -124 -320.001s-189.334 -121 -320.001 -121h-357v-565h-141zM350.001 692.001h338.001c97.333 0 174.666 28 231.999 84
s86 132.667 86 230c0 95.333 -28.333 170.333 -85 225s-133.667 82 -231 82h-340v-621z" />
    <glyph glyph-name="Q" unicode="Q" horiz-adv-x="1710" 
d="M111 729c0 205.333 70.667 379.333 212 522c140.667 142 313 213 517 213c207.333 0 382 -71 524 -213s213 -316 213 -522c0 -190 -60 -355.333 -180 -496l178 -178l-86 -88l-176 178c-132.667 -113.333 -290.334 -170 -473.001 -170
c-203.333 0 -375.666 73.333 -516.999 220s-212 324.667 -212 534zM258 729c0 -174.667 56 -321.998 168 -441.998c112.667 -120.667 250.667 -181 414 -181c142 0 266 45.333 372 136l-176 180l86 88l174 -178c89.333 113.333 134 245.666 134 396.999
c0 172 -56.667 315.667 -170 431s-253.333 173 -420 173c-164 0 -302 -57.667 -414 -173c-112 -114.667 -168 -258.334 -168 -431.001z" />
    <glyph glyph-name="R" unicode="R" horiz-adv-x="1286" 
d="M209 0v1440h426c120 0 210 -13 270 -39c68.667 -30 122 -77.667 160 -143s57 -141.333 57 -228c0 -97.333 -24.667 -180.666 -74 -249.999c-50 -69.333 -116 -115.666 -198 -138.999v-4c8.66699 -10.667 21 -29.667 37 -57l313 -580h-162l-325 606h-363v-606h-141z
M350 732.998l342 0.000976562c88 0 157.333 26.333 208 79c51.333 53.333 77 124.666 77 213.999c0 122 -43.667 206 -131 252c-44.667 23.333 -113 35 -205 35h-291v-580z" />
    <glyph glyph-name="S" unicode="S" horiz-adv-x="1101" 
d="M102 160l84.001 108.001l18 -17c6.66699 -6.66699 23 -19.334 49 -38.001c20 -14.667 46.333 -30.334 79 -47.001c24 -12 58.667 -24.667 104 -38c39.333 -11.333 81.666 -17 126.999 -17c82.667 0 151 22.667 205 68c54.667 46 82 106.333 82 181
c0 66 -24.667 122 -74 168c-50.667 47.333 -110.334 85.333 -179.001 114l-212 92c-70.667 32 -130.667 76.667 -180 134s-74 127 -74 209c0 106.667 42.333 198 127 274c84 75.333 191.333 113 322 113c74 0 142.667 -11.333 206 -34
c64.667 -23.333 110.667 -46.666 138 -69.999l41 -35l-70 -119c-9.33301 9.33301 -23 21 -41 35c-15.333 12 -51.666 30 -108.999 54c-54 22.667 -109 34 -165 34c-88.667 0 -161.667 -24.667 -219 -74c-56.667 -48.667 -85 -106.667 -85 -174
c0 -62 24.667 -114.667 74 -158c48.667 -42.667 108.334 -78.667 179.001 -108l212 -91c72 -32.667 132.333 -78.667 181 -138s73 -133 73 -221c0 -111.333 -39.333 -204 -118 -278c-80 -74.667 -186 -112 -318 -112c-86.667 0 -168.334 15.667 -245.001 47
c-74 30 -128 61 -162 93z" />
    <glyph glyph-name="T" unicode="T" horiz-adv-x="1204" 
d="M14 1313v127h1176v-127h-516v-1313h-142v1313h-518z" />
    <glyph glyph-name="U" unicode="U" horiz-adv-x="1482" 
d="M190 502v938h144v-936c0 -123.333 36.667 -220.333 110 -291c74.667 -71.333 173.667 -107 297 -107c125.333 0 225 36 299 108s111 170 111 294v932h141v-938c0 -158.667 -50.333 -286 -151 -382c-102 -96.667 -234.667 -145 -398 -145c-164 0 -297.333 48.333 -400 145
c-102 96 -153 223.333 -153 382z" />
    <glyph glyph-name="V" unicode="V" horiz-adv-x="1265" 
d="M25 1440h151l399 -1094l56 -186h4c20 78 38.333 140 55 186l400 1094h151l-534 -1440h-148z" />
    <glyph glyph-name="W" unicode="W" horiz-adv-x="1898" 
d="M80 1440l147.002 0.000976562l279 -1118l33 -154h4l4 20l12 62c1.33301 6.66699 6.66602 30.667 15.999 72l304 1118h135l303 -1118c9.33301 -41.333 14.666 -65.333 15.999 -72l7.5 -36c3 -14 4.83301 -22.667 5.5 -26l4 -20h4c12.667 68 23.334 119.333 32.001 154
l289 1118h148l-383 -1440h-170l-275 1014l-47 215h-4c-14.667 -78.667 -30.334 -150.334 -47.001 -215.001l-274 -1014h-170z" />
    <glyph glyph-name="X" unicode="X" horiz-adv-x="1212" 
d="M53 0l459 752.001l-418 688h166l252 -426l94 -166h4c27.333 61.333 56 116.666 86 165.999l254 426h168l-422 -688l461 -752h-164l-299 498l-90 159h-4c-28.667 -56 -58 -109.667 -88 -161l-295 -496h-164z" />
    <glyph glyph-name="Y" unicode="Y" horiz-adv-x="1175" 
d="M31 1440h162l305 -522l88 -173h4c30.667 68 60 125.667 88 173l305 522h160l-484 -822v-618h-143v618z" />
    <glyph glyph-name="Z" unicode="Z" horiz-adv-x="1218" 
d="M88 0v100.001l743 1082l101 131v4c-20.667 -2.66699 -55.667 -4 -105 -4h-700v127h981v-101l-743 -1081c-9.33301 -13.333 -26.333 -36 -51 -68c-16 -20.667 -29.333 -36.334 -40 -47.001l-12 -16v-4c22 2.66699 57.667 4 107 4h745v-127h-1026z" />
    <glyph glyph-name="bracketleft" unicode="[" horiz-adv-x="577" 
d="M219 -195v1690h277v-115h-148v-1460h148v-115h-277z" />
    <glyph glyph-name="backslash" unicode="\" horiz-adv-x="804" 
d="M70 1520h131l518 -1606h-129z" />
    <glyph glyph-name="bracketright" unicode="]" horiz-adv-x="577" 
d="M82 -80h147v1460h-147v115h276v-1690h-276v115z" />
    <glyph glyph-name="asciicircum" unicode="^" horiz-adv-x="1241" 
d="M150 512l405 928h96l406 -928h-133l-320 758l-319 -758h-135z" />
    <glyph glyph-name="underscore" unicode="_" horiz-adv-x="1196" 
d="M70 0h1056v-119h-1056v119z" />
    <glyph glyph-name="grave" unicode="`" horiz-adv-x="1032" 
d="M365 1784h161l142 -244h-127z" />
    <glyph glyph-name="a" unicode="a" 
d="M84 281c0 237.333 210.332 356 630.999 356h57v27c0 177.333 -85.333 266 -256 266c-48.667 0 -98 -8.33301 -148 -25c-48 -16 -84 -32.333 -108 -49l-35 -25l-65 107c15.333 12 30 22.667 44 32c18.667 12 60.334 29.333 125.001 52c63.333 22 129 33 197 33
c124.667 0 220 -34 286 -102s99 -166 99 -294v-659h-133v113l4 86h-4l-11 -24c-4.66699 -10 -16.667 -28 -36 -54c-20 -27.333 -41.333 -50 -64 -68c-24.667 -19.333 -57.667 -37 -99 -53c-44 -16.667 -88.667 -25 -134 -25c-93.333 0 -175.333 26.667 -246 80
c-69.333 52.667 -104 128 -104 226zM226.999 289c0 -51.333 20.334 -96.668 61.001 -136.001s97 -59 169 -59c92 0 167.667 39.667 227 119c58.667 78.667 88 166.667 88 264v45h-59c-52.667 0 -102.334 -1.66699 -149.001 -5
c-42.667 -3.33301 -92.667 -11.666 -150 -24.999c-58.667 -14 -104.667 -38 -138 -72c-32.667 -33.333 -49 -77 -49 -131z" />
    <glyph glyph-name="b" unicode="b" horiz-adv-x="1206" 
d="M168 0v1440h139v-500l-4 -84h4l11 22c4 6.66699 16 22.334 36 47.001c16.667 20.667 38.667 40.667 66 60c25.333 18 58.666 34 99.999 48c44 14.667 89.667 22 137 22c136.667 0 245.667 -50 327 -150c81.333 -100.667 122 -231 122 -391
c0 -161.333 -43.333 -291.333 -130 -390c-87.333 -99.333 -199 -149 -335 -149c-46 0 -89 7 -129 21s-72 30.667 -96 50c-26 20.667 -47.333 40.334 -64 59.001c-17.333 19.333 -29.666 36.333 -36.999 51l-12 20h-4c2.66699 -20.667 4 -48.667 4 -84v-92h-135zM303 511.998
c0 -111.333 28.666 -208.333 85.999 -291c56.667 -82 137.334 -123 242.001 -123c94 0 172.667 37.667 236 113c64 76 96 177 96 303c0 124.667 -30.333 225 -91 301c-60 75.333 -138.333 113 -235 113c-94.667 0 -174 -35 -238 -105s-96 -173.667 -96 -311z" />
    <glyph glyph-name="c" unicode="c" horiz-adv-x="1124" 
d="M96 514c0 156.667 51.999 285.998 155.999 387.998s232.333 153 385 153c43.333 0 88.333 -5.33301 135 -16c41.333 -9.33301 77.333 -21.666 108 -36.999c22.667 -11.333 47 -25.666 73 -42.999c20.667 -14 36 -26.333 46 -37l15 -15l-72 -104
c-4.66699 6 -17 17.667 -37 35c-15.333 13.333 -49.666 31.666 -102.999 54.999c-54 23.333 -107.667 35 -161 35c-115.333 0 -211 -38.667 -287 -116s-114 -176.666 -114 -297.999c0 -120.667 38.667 -219.667 116 -297c78 -78 174.333 -117 289 -117
c37.333 0 75.666 5.33301 114.999 16c36 9.33301 66.667 21.333 92 36c23.333 13.333 45.666 27.333 66.999 42c20 14 34.667 25.667 44 35l12 17l63 -109c-6 -6 -11.333 -11.667 -16 -17c-7.33301 -8.66699 -23.666 -21.667 -48.999 -39c-30 -20.667 -57.333 -37 -82 -49
c-29.333 -14 -66.666 -27 -111.999 -39c-46 -12 -93.333 -18 -142 -18c-153.333 0 -282 50.333 -386 151c-103.333 100 -155 229.333 -155 388z" />
    <glyph glyph-name="d" unicode="d" horiz-adv-x="1206" 
d="M100 516c0 161.333 43.001 291.332 129.001 389.999c86 99.333 197.333 149 334 149c46.667 0 90 -7 130 -21c41.333 -14.667 73.666 -30.667 96.999 -48c20.667 -15.333 41.334 -34 62.001 -56c17.333 -18.667 29.666 -35 36.999 -49l10 -21h4
c-2.66699 20.667 -4 46.667 -4 78v502h139v-1440h-135v109l4 73h-4l-11 -22c-4 -8 -16 -24.667 -36 -50s-41.667 -46.333 -65 -63c-24 -17.333 -58 -33.666 -102 -48.999s-90.667 -23 -140 -23c-136.667 0 -245.667 50 -327 150c-81.333 100.667 -122 231 -122 391z
M244.001 515.999c0 -125.333 30 -226 90 -302s138.333 -114 235 -114c94.667 0 174 35 238 105s96 173.667 96 311c0 113.333 -28.667 210.666 -86 291.999s-138 122 -242 122c-94 0 -172.667 -37.667 -236 -113s-95 -175.666 -95 -300.999z" />
    <glyph glyph-name="e" unicode="e" horiz-adv-x="1132" 
d="M96 514c0 164 48.999 294.999 146.999 392.999c98.667 98.667 219 148 361 148c137.333 0 243.333 -45.333 318 -136s112 -203.667 112 -339l-4 -72h-790c3.33301 -128 42.333 -227.667 117 -299c76.667 -72.667 170.667 -109 282 -109c55.333 0 109.333 10.667 162 32
c47.333 19.333 85.333 40.333 114 63l37 30l64 -106c-9.33301 -9.33301 -25.333 -22.666 -48 -39.999c-20 -14.667 -63.667 -36 -131 -64c-65.333 -26.667 -132.666 -40 -201.999 -40c-154 0 -282.333 50.667 -385 152s-154 230.333 -154 387zM245.999 622.999
l646.999 -0.000976562c-4 102.667 -33.333 180.667 -88 234c-54.667 54 -123 81 -205 81c-89.333 0 -166.666 -27.667 -231.999 -83s-106 -132.666 -122 -231.999z" />
    <glyph glyph-name="f" unicode="f" horiz-adv-x="655" 
d="M86 901v117.001h129v49c0 78.667 12.667 146 38 202c25.333 55.333 58.333 95 99 119c40 23.333 77.667 39.666 113 48.999c32.667 8.66699 68 13 106 13l64 -4v-125c-12.667 2.66699 -29 4 -49 4c-24 0 -47.667 -3 -71 -9c-22 -6 -46.667 -17 -74 -33
c-26 -15.333 -47 -42 -63 -80s-24 -83.333 -24 -136v-49h264v-117h-264v-901h-139v901h-129z" />
    <glyph glyph-name="g" unicode="g" horiz-adv-x="1191" 
d="M100 535c0 155.333 40.3301 280.666 120.997 375.999c80.667 96 189.334 144 326.001 144c50.667 0 97 -6 139 -18c42.667 -12 75.667 -26.333 99 -43c26 -18.667 46.333 -35.667 61 -51c18 -19.333 29 -33.333 33 -42l8 -18h4c-1.33301 10.667 -2 22.334 -2 35.001v112
h135v-1005c0 -153.333 -47.333 -267.333 -142 -342c-95.333 -75.333 -212.666 -113 -351.999 -113c-119.333 0 -231.666 27.333 -336.999 82l53 115c85.333 -48 178 -72 278 -72c107.333 0 194.333 26.667 261 80s100 134.333 100 243v95l4 73h-4
c-64 -120 -172.667 -180 -326 -180c-137.333 0 -248.333 49.333 -333 148c-84 98 -126 225 -126 381zM243.997 537c0 -122 30.668 -220.333 92.001 -295c61.333 -74 143.333 -111 246 -111c89.333 0 162.666 31.667 219.999 95c56.667 62.667 85 165.667 85 309
c0 262 -108.667 393 -326 393c-99.333 0 -177 -34.667 -233 -104s-84 -165 -84 -287z" />
    <glyph glyph-name="h" unicode="h" horiz-adv-x="1214" 
d="M168 0l0.000976562 1440h139v-557l-4 -84h4c25.333 61.333 73.666 119.333 144.999 174s159.666 82 264.999 82c122.667 0 210.667 -33.667 264 -101s80 -167 80 -299v-655h-139v618c0 97.333 -14.667 172.666 -44 225.999s-89.333 80 -180 80
c-87.333 0 -165.666 -27.333 -234.999 -82c-70 -54.667 -116.333 -125 -139 -211c-11.333 -38 -17 -83.667 -17 -137v-494h-139z" />
    <glyph glyph-name="i" unicode="i" horiz-adv-x="475" 
d="M164 1266v174h145v-174h-145zM168 0v1030h139v-1030h-139z" />
    <glyph glyph-name="j" unicode="j" horiz-adv-x="475" 
d="M-113 -295c16 -1.33301 31 -1.99609 45 -1.99609c25.333 0 49.333 3 72 9c20.667 5.33301 45.667 16.666 75 33.999c26 15.333 47.333 42.666 64 81.999s25 85.666 25 138.999v1063h139v-1069c0 -79.333 -12.667 -147 -38 -203c-24.667 -54 -58 -93 -100 -117
c-43.333 -24.667 -81.333 -41.334 -114 -50.001s-68 -13 -106 -13l-62 6v121zM166 1266v174h143v-174h-143z" />
    <glyph glyph-name="k" unicode="k" horiz-adv-x="1028" 
d="M168 0v1440h139v-803h164l309 393h168l-358 -448v-4l393 -578h-166l-344 516h-166v-516h-139z" />
    <glyph glyph-name="l" unicode="l" horiz-adv-x="505" 
d="M158 244v1196h139v-1166c0 -103.333 38.333 -155 115 -155l34 2v-125c-14 -2.66699 -31 -4 -51 -4c-158 0 -237 84 -237 252z" />
    <glyph glyph-name="m" unicode="m" horiz-adv-x="1875" 
d="M168 0l0.00390625 1030h137v-153l-4 -82h4c24.667 70.667 73.334 131.667 146.001 183s148.334 77 227.001 77c181.333 0 287.666 -86 318.999 -258h4c29.333 72.667 78.666 133.667 147.999 183c70 50 147 75 231 75c121.333 0 208.666 -33.667 261.999 -101
s80 -167 80 -299v-655h-139v621c0 96 -15.667 171.333 -47 226c-30.667 54 -89.334 81 -176.001 81c-76 0 -144.333 -28.667 -205 -86s-101 -125.666 -121 -204.999c-12 -38 -18 -88 -18 -150v-487h-139v621c0 42.667 -2.66699 80.667 -8 114c-6 35.333 -15 67 -27 95
c-14.667 33.333 -37 57.666 -67 72.999c-32 16.667 -70.667 25 -116 25c-80.667 0 -151.334 -29.333 -212.001 -88s-102.334 -130.334 -125.001 -215.001c-10 -40 -15 -86 -15 -138v-487h-139z" />
    <glyph glyph-name="n" unicode="n" horiz-adv-x="1214" 
d="M168 0v1030h137v-153l-4 -82h4c24.667 63.333 72.667 122.333 144 177c71.333 55.333 160.666 83 267.999 83c122.667 0 210.667 -33.667 264 -101s80 -167 80 -299v-655h-139v618c0 97.333 -14.667 172.666 -44 225.999s-89.333 80 -180 80c-86.667 0 -165 -27 -235 -81
c-69.333 -54 -115.666 -124 -138.999 -210c-11.333 -39.333 -17 -85.666 -17 -138.999v-494h-139z" />
    <glyph glyph-name="o" unicode="o" horiz-adv-x="1273" 
d="M92 520c0 152 53 279 159 381c106.667 102.667 235.334 154 386.001 154s279.334 -51.333 386.001 -154c106 -102 159 -229 159 -381c0 -154.667 -53 -284 -159 -388c-106.667 -104.667 -235.334 -157 -386.001 -157s-279.334 52.333 -386.001 157
c-106 104 -159 233.333 -159 388zM236 520c0 -119.333 38.667 -219 116 -299c78 -80.667 173 -121 285 -121s207 40.333 285 121c77.333 80 116 179.667 116 299c0 116.667 -38.667 213.667 -116 291c-78 78 -173 117 -285 117s-207 -39 -285 -117
c-77.333 -77.333 -116 -174.333 -116 -291z" />
    <glyph glyph-name="p" unicode="p" horiz-adv-x="1206" 
d="M168 -410v1440h133v-100l-4 -80h4l11 22c5.33301 10.667 17.333 27.334 36 50.001c18 22 40 42.333 66 61c25.333 18 59.333 34.333 102 49c44.667 15.333 91.667 23 141 23c136.667 0 245.667 -50 327 -150c81.333 -100.667 122 -231 122 -391
c0 -161.333 -43 -291.333 -129 -390c-86 -99.333 -196.667 -149 -332 -149c-46.667 0 -90 7 -130 21c-40.667 14 -72.667 30.333 -96 49c-24 19.333 -45 38.333 -63 57c-16.667 18 -29 34.667 -37 50l-12 20h-4c2.66699 -22 4 -52 4 -90v-492h-139zM303 511.999
c0 -110.667 29.333 -207.333 88 -290s138.667 -124 240 -124c94 0 172.667 37.667 236 113c64 76 96 177 96 303c0 124.667 -30.333 225 -91 301c-60 75.333 -138.333 113 -235 113c-94.667 0 -174 -35 -238 -105s-96 -173.667 -96 -311z" />
    <glyph glyph-name="q" unicode="q" horiz-adv-x="1206" 
d="M100 516c0 161.333 43 291.333 129 390c86 99.333 197.333 149 334 149c46.667 0 90 -7 130 -21c42 -14.667 74.667 -31.334 98 -50.001c22 -18 43 -37.333 63 -58c17.333 -18.667 29.666 -35 36.999 -49l10 -21h4c-1.33301 29.333 -2 55.333 -2 78v96h135v-1440h-139
v496l4 90h-4l-11 -21c-6 -11.333 -18 -27.666 -36 -48.999c-18 -22 -40 -42.333 -66 -61c-25.333 -18 -58.666 -34 -99.999 -48c-44 -14.667 -89.667 -22 -137 -22c-136.667 0 -245.667 50 -327 150c-81.333 100.667 -122 231 -122 391zM244 516c0 -125.333 30 -226 90 -302
s138.333 -114 235 -114c94.667 0 174 35 238 105s96 173.667 96 311c0 113.333 -28.667 210.666 -86 291.999s-138 122 -242 122c-94 0 -172.667 -37.667 -236 -113s-95 -175.666 -95 -300.999z" />
    <glyph glyph-name="r" unicode="r" horiz-adv-x="729" 
d="M168 0v1030h137v-182l-4 -82h4c26 82 67.333 148.333 124 199c56 50 123.333 75 202 75l55 -6v-137c-14 2.66699 -31 4 -51 4c-70 0 -131.667 -24.667 -185 -74c-53.333 -48.667 -91.333 -112.667 -114 -192c-19.333 -62 -29 -129 -29 -201v-434h-139z" />
    <glyph glyph-name="s" unicode="s" horiz-adv-x="907" 
d="M84 125l75.999 100.003c4.66699 -6 17 -17.667 37 -35c14.667 -13.333 49.334 -31.666 104.001 -54.999c54 -23.333 109.333 -35 166 -35c58.667 0 107.667 14.333 147 43c40 29.333 60 69.666 60 120.999c0 41.333 -19.333 76.666 -58 105.999s-84.667 54 -138 74
c-42 15.333 -96.333 37.666 -163 66.999c-55.333 24 -101.666 57.667 -138.999 101c-38 44 -57 96.667 -57 158c0 88 34 157.667 102 209c67.333 50.667 150.666 76 249.999 76c41.333 0 80 -4 116 -12c40 -8.66699 70 -17.667 90 -27c23.333 -10.667 44 -22 62 -34
c19.333 -13.333 32.333 -22.666 39 -27.999l10 -12l-63 -106c-5.33301 5.33301 -15.333 13.666 -30 24.999c-12.667 10 -41.334 24 -86.001 42c-44 18 -91.333 27 -142 27c-57.333 0 -105.666 -13.333 -144.999 -40c-40 -26.667 -60 -66.667 -60 -120
c0 -41.333 19 -76.333 57 -105c38.667 -29.333 85.334 -54 140.001 -74c53.333 -19.333 107.666 -41.333 162.999 -66c54.667 -24.667 100.667 -58.334 138 -101.001c38 -44 57 -97.333 57 -160c0 -85.333 -32.667 -154.666 -98 -207.999c-66 -54 -150.667 -81 -254 -81
c-43.333 0 -88.333 5.33301 -135 16c-41.333 9.33301 -77.333 21.666 -108 36.999c-26 13.333 -51 28 -75 44c-20.667 14 -37 27 -49 39z" />
    <glyph glyph-name="t" unicode="t" horiz-adv-x="686" 
d="M72 901v117h137v297h137v-297h258v-117h-258v-512c0 -46.667 6 -87 18 -121c12 -34.667 26 -61.334 42 -80.001s35 -33.667 57 -45s41.667 -18.333 59 -21c20 -3.33301 38.667 -5 56 -5l47 4v-125c-13.333 -2.66699 -33.333 -4 -60 -4c-28.667 0 -56.667 2 -84 6
s-58.333 14 -93 30c-36 16.667 -66 37.334 -90 62.001c-25.333 26.667 -47 64.334 -65 113.001c-17.333 47.333 -26 104.666 -26 171.999v526h-135z" />
    <glyph glyph-name="u" unicode="u" horiz-adv-x="1204" 
d="M154 375v655h139v-618c0 -97.333 14.667 -172.666 44 -225.999s89 -80 179 -80c114 0 206 42.333 276 127s105 186 105 304v493h139v-1030h-135v154l4 82h-4c-26.667 -64 -74.667 -123.333 -144 -178c-70.667 -55.333 -157 -83 -259 -83c-120 0 -207.333 33 -262 99
c-54.667 65.333 -82 165.666 -82 300.999z" />
    <glyph glyph-name="v" unicode="v" horiz-adv-x="993" 
d="M27 1030l147 -0.000976562l287 -756l35 -122h4c12 48.667 24.333 89.334 37 122.001l284 756h146l-394 -1030h-151z" />
    <glyph glyph-name="w" unicode="w" horiz-adv-x="1640" 
d="M35 1030l146.999 -0.000976562l250 -768l31 -110h4c10 42 20.333 78.667 31 110l254 764h137l254 -764l31 -110h4c12.667 50.667 22.667 87.334 30 110.001l250 768h148l-349 -1030h-151l-252 733l-33 111h-4c-11.333 -44.667 -21.666 -81.667 -30.999 -111l-251 -733
h-152z" />
    <glyph glyph-name="x" unicode="x" horiz-adv-x="1005" 
d="M51 0l363 537l-332 493h164l221 -346l35 -59h2l35 59l221 346h164l-332 -493l362 -537h-163l-250 387l-35 57h-4h-2c-9.33301 -17.333 -21 -36.333 -35 -57l-250 -387h-164z" />
    <glyph glyph-name="y" unicode="y" horiz-adv-x="1021" 
d="M14 -369l54 111c38.667 -31.333 79.334 -47 122.001 -47c81.333 0 146.333 56 195 168l64 145l-431 1022h154l303 -751l37 -109h4c12 44 23.667 80.333 35 109l297 751h151l-507 -1245c-27.333 -67.333 -67 -120 -119 -158s-111.333 -57 -178 -57c-32 0 -63 5 -93 15
c-28.667 9.33301 -50.334 19.333 -65.001 30z" />
    <glyph glyph-name="z" unicode="z" horiz-adv-x="1042" 
d="M86 0v90l576 723l81 94v4c-20.667 -2.66699 -54.667 -4 -102 -4h-530v123h821v-92l-576 -721l-84 -94v-4c22 2.66699 57 4 105 4h575v-123h-866z" />
    <glyph glyph-name="braceleft" unicode="{" horiz-adv-x="688" 
d="M109 598l-0.000976562 127.005c4 0 10 1 18 3c5.33301 1.33301 19.333 7.66602 42 18.999c19.333 10 37 22.333 53 37c15.333 14.667 29.333 38 42 70c12.667 32.667 19 68.334 19 107.001v167c0 64 8 120 24 168c15.333 46.667 35 83 59 109
c23.333 25.333 49.666 44.666 78.999 57.999c34 15.333 60 24.333 78 27c23.333 3.33301 45 5 65 5h30v-115h-18c-18.667 0 -36 -2.33301 -52 -7c-18.667 -5.33301 -39 -15.666 -61 -30.999c-23.333 -16 -41.666 -42 -54.999 -78c-13.333 -35.333 -20 -82 -20 -140v-200
c0 -36.667 -5.66699 -71.334 -17 -104.001s-25 -58 -41 -76c-15.333 -17.333 -31.666 -33 -48.999 -47c-14.667 -12 -28.334 -20.333 -41.001 -25l-16 -8v-5c1.33301 -0.666992 3.83301 -1.83398 7.5 -3.50098s6.83398 -2.83398 9.50098 -3.50098
c7.33301 -2.66699 20.666 -10.667 39.999 -24c20 -14 36.667 -29.333 50 -46c14 -18 27 -43 39 -75s18 -68 18 -108v-225c0 -54 7 -100 21 -138s32.333 -64.333 55 -79c24.667 -16 44.667 -26.333 60 -31c18 -5.33301 35.333 -8 52 -8h18v-115
c-10.667 -1.33301 -20.667 -2 -30 -2c-20 0 -41.667 1.66699 -65 5c-19.333 2.66699 -45.333 12 -78 28c-28.667 14 -55 34 -79 60s-43.667 62 -59 108c-16 48 -24 104 -24 168v195c0 37.333 -6.33301 72.333 -19 105c-11.333 29.333 -25.666 52.666 -42.999 69.999
c-14 14 -30.667 26.667 -50 38c-16 9.33301 -30.667 14.666 -44 15.999z" />
    <glyph glyph-name="bar" unicode="|" horiz-adv-x="563" 
d="M217 -322v1936h129v-1936h-129z" />
    <glyph glyph-name="braceright" unicode="}" horiz-adv-x="688" 
d="M70 -82l19.9961 -0.000976562c15.333 0 32 2.66699 50 8c15.333 4.66699 35.333 15 60 31c22.667 14.667 41 41 55 79s21 84 21 138v225c0 39.333 5.66699 75.333 17 108c10.667 31.333 24.334 56.333 41.001 75c13.333 14.667 29.666 30 48.999 46
c14.667 12 28.334 20.333 41.001 25l16 6v5c-1.33301 0.666992 -3.83301 1.83398 -7.5 3.50098s-6.83398 2.83398 -9.50098 3.50098c-6.66699 2.66699 -20 11.334 -40 26.001s-36.667 30.667 -50 48c-14 18 -27 43 -39 75s-18 66.667 -18 104v200
c0 58 -6.66699 104.667 -20 140c-13.333 36 -31.666 62 -54.999 78c-21.333 14.667 -41.333 25 -60 31c-14.667 4.66699 -31.667 7 -51 7h-20v115h32c18.667 0 39.667 -1.66699 63 -5c19.333 -2.66699 45.333 -12 78 -28c30.667 -14.667 57.334 -34 80.001 -58
c22.667 -23.333 42 -59.333 58 -108c16.667 -50 25 -106 25 -168v-167c0 -40.667 6 -76.334 18 -107.001c12 -31.333 26.333 -54.666 43 -69.999s33.334 -28 50.001 -38c17.333 -10.667 32 -16.334 44 -17.001l19 -4v-127c-4.66699 0 -11 -1 -19 -3s-22 -8 -42 -18
c-18 -8.66699 -35.667 -21.334 -53 -38.001c-16 -15.333 -30 -38.333 -42 -69s-18 -65.667 -18 -105v-195c0 -62 -8.33301 -118 -25 -168c-15.333 -47.333 -34.666 -83.333 -57.999 -108c-23.333 -25.333 -50 -45.333 -80 -60c-32.667 -16 -58.667 -25.333 -78 -28
c-23.333 -3.33301 -44.333 -5 -63 -5l-32 2v115z" />
    <glyph glyph-name="asciitilde" unicode="~" horiz-adv-x="1232" 
d="M152 428c0 108 23.001 188.001 69.001 240.001c45.333 51.333 109 77 191 77c40 0 76.667 -7 110 -21c32.667 -14 59.667 -31.667 81 -53l62 -64c21.333 -22.667 44 -40.334 68 -53.001c27.333 -14.667 56 -22 86 -22c54.667 0 92.667 21.333 114 64s32 89.667 32 141
h120c0 -107.333 -23 -187 -69 -239s-109.667 -78 -191 -78c-50.667 0 -95.334 11.333 -134.001 34c-41.333 24 -71 48 -89 72c-18.667 24 -45 48.333 -79 73c-31.333 22.667 -66.333 34 -105 34c-54.667 0 -92.667 -21.333 -114 -64s-32 -89.667 -32 -141h-120z" />
    <glyph glyph-name="uni00A0" unicode="&#xa0;" horiz-adv-x="550" 
 />
    <glyph glyph-name="exclamdown" unicode="&#xa1;" horiz-adv-x="561" 
d="M201 872v158h157v-158h-157zM209 -410l6 1063h131l6 -1063h-143z" />
    <glyph glyph-name="cent" unicode="&#xa2;" horiz-adv-x="1171" 
d="M123 721c0 154 37.999 284.001 113.999 390.001s181.333 166.333 316 181v172h115v-172c174 -20 301.667 -121 383 -303l-131 -49c-68 147.333 -169.333 221 -304 221c-113.333 0 -199.666 -41 -258.999 -123c-59.333 -82.667 -89 -188.334 -89 -317.001
c0 -132 29.333 -238.333 88 -319s145.334 -121 260.001 -121c135.333 0 236.666 73.667 303.999 221l131 -51c-37.333 -83.333 -89 -153 -155 -209c-65.333 -55.333 -141.333 -87 -228 -95v-174h-115v174c-134 14.667 -239.333 75.667 -316 183
c-76 106 -114 236.333 -114 391z" />
    <glyph glyph-name="sterling" unicode="&#xa3;" horiz-adv-x="1206" 
d="M121 0l0.000976562 127h129v541h-90v112h90v305c0 108.667 40 199 120 271s181.333 108 304 108c59.333 0 114.666 -9.66699 165.999 -29c50.667 -19.333 89.334 -39 116.001 -59l37 -28l-86 -103c-67.333 57.333 -145 86 -233 86
c-86.667 0 -155.334 -24.333 -206.001 -73c-50 -48 -75 -108.333 -75 -181v-297h393v-112h-393v-541h694v-127h-966z" />
    <glyph glyph-name="yen" unicode="&#xa5;" horiz-adv-x="1230" 
d="M70 1440l161 0.000976562l293 -510c14 -24.667 28.333 -52.334 43 -83.001l35 -73l10 -29h4c24 61.333 53.667 123 89 185l294 510h162l-360 -619h215v-104h-273l-55 -99v-79h328v-107h-328v-432h-143v432h-334v107h334v79l-58 99h-276v104h217z" />
    <glyph glyph-name="section" unicode="&#xa7;" horiz-adv-x="843" 
d="M113 -41l71 98c47.333 -40.667 103.333 -61 168 -61s118 20 160 60s63 94.333 63 163c0 22.667 -2.66699 44.667 -8 66l-133 878h123l139 -889c6 -42 9 -65.667 9 -71c0 -96 -33 -175 -99 -237s-151.333 -93 -256 -93c-40 0 -81 7.33301 -123 22
c-38.667 13.333 -68 28 -88 44zM139 1135c0 95.333 32.667 174 98 236c64.667 62 149.667 93 255 93c41.333 0 82 -7 122 -21c38.667 -13.333 67.334 -27.333 86.001 -42l29 -23l-72 -96c-45.333 39.333 -100.333 59 -165 59s-118.334 -19.333 -161.001 -58
c-43.333 -39.333 -65 -93 -65 -161c0 -20.667 2.66699 -41.667 8 -63l136 -885h-123l-140 889c-5.33301 23.333 -8 47.333 -8 72z" />
    <glyph glyph-name="dieresis" unicode="&#xa8;" horiz-adv-x="1032" 
d="M299 1608v176h125v-176h-125zM608 1608v176h127v-176h-127z" />
    <glyph glyph-name="copyright" unicode="&#xa9;" horiz-adv-x="1701" 
d="M123 721c0 205.333 70.667 380.667 212 526c140.667 144.667 311 217 511 217c203.333 0 376.333 -72.333 519 -217s214 -320 214 -526c0 -209.333 -71 -386 -213 -530s-315.333 -216 -520 -216c-200 0 -370.667 72.667 -512 218c-140.667 144.667 -211 320.667 -211 528
zM244 721.001c0 -179.333 58.002 -330 174.002 -452s258.667 -183 428 -183c173.333 0 319 61 437 183s177 272.667 177 452c0 177.333 -59 327 -177 449c-118.667 122.667 -264.334 184 -437.001 184c-168.667 0 -311.334 -61.333 -428.001 -184
c-116 -122 -174 -271.667 -174 -449zM444.002 717.001c0 114 38.334 213.002 115.001 297.002c76 83.333 178.333 125 307 125c42 0 82.333 -6.66699 121 -20c37.333 -12.667 68.666 -28.667 93.999 -48c23.333 -17.333 45.333 -36 66 -56c20 -18.667 33.667 -34.667 41 -48
l12 -19l-94 -63l-10 15c-4.66699 7.33301 -14.334 18.666 -29.001 33.999c-16.667 18 -32.667 32.333 -48 43c-18.667 13.333 -40.667 24.666 -66 33.999c-26.667 10 -54.334 15 -83.001 15c-93.333 0 -167.666 -30 -222.999 -90c-54.667 -59.333 -82 -131.666 -82 -216.999
c0 -84.667 27 -157 81 -217s128.667 -90 224 -90c46 0 88.333 11.667 127 35c39.333 24 67.333 47.667 84 71l25 35l94 -64c-5.33301 -8.66699 -9.66602 -15.334 -12.999 -20.001c-2.66699 -4 -16 -19 -40 -45c-18 -20 -40.333 -39.333 -67 -58
c-24.667 -18 -55.667 -33.667 -93 -47c-36 -13.333 -76.333 -20 -121 -20c-129.333 0 -232 41.333 -308 124c-76 83.333 -114 181.333 -114 294z" />
    <glyph glyph-name="ordfeminine" unicode="&#xaa;" horiz-adv-x="874" 
d="M166 541v96h541v-96h-541zM170 977c0 151.333 130.334 227.001 391.001 227.001h27v8c0 101.333 -48.667 152 -146 152c-28.667 0 -56.667 -4.66699 -84 -14c-28.667 -10 -50.334 -20.333 -65.001 -31l-23 -14l-53 79c59.333 50.667 138 76 236 76
c80 0 141 -21.333 183 -64c41.333 -42 62 -104.667 62 -188v-413h-106v100h-4c-4 -8.66699 -10.667 -19 -20 -31c-9.33301 -12.667 -30.333 -29.334 -63 -50.001c-33.333 -21.333 -70 -32 -110 -32c-58.667 0 -111 17.333 -157 52c-45.333 34 -68 81.667 -68 143z
M285.001 987.001c0 -31.333 11 -56.667 33 -76c22.667 -20 54 -30 94 -30c52 0 94 22 126 66s48 93.667 48 149v18h-25c-184 0 -276 -42.333 -276 -127z" />
    <glyph glyph-name="guillemotleft" unicode="&#xab;" horiz-adv-x="1071" 
d="M102 578l336 421h150l-336 -421l336 -420h-150zM469 578l336 421h151l-335 -421l335 -420h-151z" />
    <glyph glyph-name="logicalnot" unicode="&#xac;" horiz-adv-x="1275" 
d="M150 700v119h954v-495h-125v376h-829z" />
    <glyph glyph-name="uni00AD" unicode="&#xad;" horiz-adv-x="884" 
d="M152 518v127h581v-127h-581z" />
    <glyph glyph-name="registered" unicode="&#xae;" horiz-adv-x="1701" 
d="M123 721c0 205.333 70.667 380.667 212 526c140.667 144.667 311 217 511 217c203.333 0 376.333 -72.333 519 -217s214 -320 214 -526c0 -209.333 -71 -386 -213 -530s-315.333 -216 -520 -216c-200 0 -370.667 72.667 -512 218c-140.667 144.667 -211 320.667 -211 528
zM244 721.001c0 -179.333 58.002 -330 174.002 -452s258.667 -183 428 -183c173.333 0 319 61 437 183s177 272.667 177 452c0 177.333 -59 327 -177 449c-118.667 122.667 -264.334 184 -437.001 184c-168.667 0 -311.334 -61.333 -428.001 -184
c-116 -122 -174 -271.667 -174 -449zM604.002 322.001v798h285c72 0 129.667 -21.667 173 -65c44 -44 66 -101.333 66 -172c0 -55.333 -14.667 -102.333 -44 -141c-28 -36.667 -63 -60 -105 -70v-4c8.66699 -12 17.667 -27 27 -45l153 -301h-127l-160 323h-153v-323h-115z
M719.002 735.001h149.001c44 0 78.667 13 104 39c25.333 26.667 38 63 38 109c0 44 -12.667 78.667 -38 104c-24.667 24.667 -59.334 37 -104.001 37h-149v-289z" />
    <glyph glyph-name="macron" unicode="&#xaf;" horiz-adv-x="1032" 
d="M264 1608v112h504v-112h-504z" />
    <glyph glyph-name="degree" unicode="&#xb0;" horiz-adv-x="780" 
d="M102 1178c0 77.333 28.001 144 84.001 200s123.667 84 203 84s147.333 -28 204 -84s85 -122.667 85 -200c0 -80 -28 -147.333 -84 -202c-56.667 -55.333 -125 -83 -205 -83c-78.667 0 -146.334 27.667 -203.001 83c-56 54.667 -84 122 -84 202zM225.001 1178
c0 -47.333 15.666 -87.668 46.999 -121.001c30.667 -32.667 69.667 -49 117 -49c46.667 0 86.334 16.333 119.001 49s49 73 49 121c0 46.667 -16.333 86.334 -49 119.001c-34 34 -73.667 51 -119 51c-46 0 -85 -17 -117 -51c-31.333 -33.333 -47 -73 -47 -119z" />
    <glyph glyph-name="plusminus" unicode="&#xb1;" horiz-adv-x="1409" 
d="M170 522v119h473v522h125v-522h471v-119h-471v-522h-125v522h-473zM207 -213h995v-119h-995v119z" />
    <glyph glyph-name="uni00B2" unicode="&#xb2;" horiz-adv-x="782" 
d="M102 930c0 63.333 15.335 119.332 46.002 167.999c32 50 69 90.333 111 121c51.333 36.667 94.666 66 129.999 88c43.333 26.667 80.666 57.667 111.999 93c30.667 34.667 46 73.334 46 116.001s-15.667 79.667 -47 111c-30.667 30.667 -71 46 -121 46
c-33.333 0 -64.666 -8.33301 -93.999 -25c-28.667 -16 -51.334 -33 -68.001 -51l-20 -24l-74 72c3.33301 4.66699 13.333 16.667 30 36c12.667 15.333 41.667 35.333 87 60c44.667 24.667 92.334 37 143.001 37c84 0 151.667 -24.667 203 -74
c50.667 -48.667 76 -110.667 76 -186c0 -54.667 -15 -104.667 -45 -150c-27.333 -42 -63 -78 -107 -108l-127 -82c-40.667 -25.333 -77.334 -56.333 -110.001 -93c-30 -34 -46.667 -72.667 -50 -116h455v-103h-569c-4.66699 26 -7 47.333 -7 64z" />
    <glyph glyph-name="uni00B3" unicode="&#xb3;" horiz-adv-x="782" 
d="M88 981l72.0029 78c5.33301 -8.66699 13.666 -18.667 24.999 -30s36 -27 74 -47s77.333 -30 118 -30c48 0 92.333 17.667 133 53c39.333 34.667 59 78 59 130c0 52.667 -20 94.334 -60 125.001c-40.667 31.333 -87.334 47 -140.001 47h-68l-29 63l203 236l51 51v4
c-26 -4 -51 -6 -75 -6h-316v102h539v-74l-244 -282c67.333 -8 126.666 -34 177.999 -78c50.667 -44 76 -106.667 76 -188c0 -79.333 -29.333 -147.333 -88 -204s-131 -85 -217 -85c-40 0 -75.333 4.66699 -106 14c-35.333 10.667 -62.666 22 -81.999 34
c-22.667 14 -41.334 27 -56.001 39c-18.667 15.333 -31 26.666 -37 33.999z" />
    <glyph glyph-name="acute" unicode="&#xb4;" horiz-adv-x="1032" 
d="M365 1540l141 244h162l-176 -244h-127z" />
    <glyph glyph-name="uni00B5" unicode="&#xb5;" horiz-adv-x="1247" 
d="M182 -410v1440h140v-618c0 -97.333 15 -172.666 45 -225.999s90 -80 180 -80c112 0 203 42.667 273 128c70.667 86 106 187 106 303v493h139v-1030h-135v156l4 80h-4c-0.666992 -2 -1.66699 -4.33301 -3 -7l-5.5 -10.5l-5.5 -10.5c-6.66699 -13.333 -21 -34.333 -43 -63
c-23.333 -30.667 -48 -57 -74 -79c-28 -24 -66 -45 -114 -63c-50 -18.667 -102.333 -28 -157 -28c-48.667 0 -93 7.33301 -133 22c-38.667 14 -64 28.667 -76 44l-18 20h-4c9.33301 -65.333 14 -117 14 -155v-316h-129z" />
    <glyph glyph-name="paragraph" unicode="&#xb6;" horiz-adv-x="1173" 
d="M100 969c0 132.667 48 244.333 144 335c95.333 90.667 210 136 344 136h489v-127h-370v-1415h-117v596c-134 0 -249 46 -345 138c-96.667 92.667 -145 205 -145 337zM834 -102.001v1292h118v-1292h-118z" />
    <glyph glyph-name="periodcentered" unicode="&#xb7;" horiz-adv-x="555" 
d="M199 508v164h157v-164h-157z" />
    <glyph glyph-name="cedilla" unicode="&#xb8;" horiz-adv-x="1032" 
d="M367 -311c28 -8.66699 56.666 -13 85.999 -13c69.333 0 104 23.333 104 70s-39 70 -117 70l-30 -2l53 227l82 -14v-17l-23 -123c42.667 -7.33301 77.334 -23.333 104.001 -48s40 -57 40 -97c0 -56 -19 -97 -57 -123s-84.667 -39 -140 -39l-102 10v99z" />
    <glyph glyph-name="uni00B9" unicode="&#xb9;" horiz-adv-x="782" 
d="M150 1556l202 201h107v-788h190v-103h-497v103h194v592l2 49h-2c-4.66699 -10 -19 -27 -43 -51l-82 -78z" />
    <glyph glyph-name="ordmasculine" unicode="&#xba;" horiz-adv-x="970" 
d="M141 1126c0 94 33.666 173.668 100.999 239.001c66.667 64.667 147 97 241 97c94.667 0 175.334 -32.333 242.001 -97s100 -144.334 100 -239.001c0 -96 -33 -177 -99 -243s-147 -99 -243 -99c-95.333 0 -176 33 -242 99c-66.667 66.667 -100 147.667 -100 243z
M175.999 541.001v96h621v-96h-621zM253.999 1126c0 -67.333 22.333 -124 67 -170c44 -44.667 98 -67 162 -67c64.667 0 119 22.333 163 67c44.667 46 67 102.667 67 170c0 66.667 -22.333 122.334 -67 167.001s-99 67 -163 67c-63.333 0 -117.333 -22.333 -162 -67
s-67 -100.334 -67 -167.001z" />
    <glyph glyph-name="guillemotright" unicode="&#xbb;" horiz-adv-x="1073" 
d="M115 158l336 420l-336 421h151l336 -421l-336 -420h-151zM483 158l336 420l-336 421h152l336 -421l-336 -420h-152z" />
    <glyph glyph-name="onequarter" unicode="&#xbc;" horiz-adv-x="1933" 
d="M127 1239l203 201h106v-789h191v-102h-498v102h195v592l2 49h-2c-4.66699 -10 -19 -27 -43 -51l-82 -78zM528 0l689 1440h118l-686 -1440h-121zM1147 233v78l434 580h113v-555h133v-103h-133v-233h-113v233h-434zM1286 336h295v278l6 127h-4
c-24 -40 -45.667 -73.333 -65 -100l-232 -301v-4z" />
    <glyph glyph-name="onehalf" unicode="&#xbd;" horiz-adv-x="1929" 
d="M127 1239l203 201h106v-789h191v-102h-498v102h195v592l2 49h-2c-4.66699 -10 -19 -27 -43 -51l-82 -78zM530 0l689 1440h118l-686 -1440h-121zM1206 63c0 63.333 15.3311 119.335 45.998 168.002c32 50.667 69.333 91 112 121
c55.333 39.333 98.666 68.666 129.999 87.999c42 26 79 57.333 111 94c30.667 34.667 46 73 46 115c0 43.333 -15.667 80.666 -47 111.999c-30.667 30.667 -71 46 -121 46c-31.333 0 -62.666 -8.33301 -93.999 -25c-28.667 -15.333 -50.667 -31.666 -66 -48.999l-23 -26
l-73 71c8.66699 12 18.334 24.333 29.001 37c12 14 41 33.667 87 59c44.667 24.667 92.667 37 144 37c84.667 0 152.334 -24.333 203.001 -73c50 -48 75 -110.333 75 -187c0 -54.667 -14.667 -104.334 -44 -149.001c-28 -42.667 -63.667 -79 -107 -109l-127 -82
c-42 -26 -78.667 -56.667 -110 -92c-30 -34 -46.667 -73 -50 -117h455v-102h-570c-4 22 -6 43 -6 63z" />
    <glyph glyph-name="threequarters" unicode="&#xbe;" horiz-adv-x="1966" 
d="M96 664l72.001 77.002c3.33301 -5.33301 12 -15 26 -29c12 -12 36.333 -27.667 73 -47c38 -20 77.333 -30 118 -30c49.333 0 93.666 17.333 132.999 52c40 35.333 60 78.666 60 129.999c0 52 -20.333 93.667 -61 125s-87.334 47 -140.001 47h-68l-28 64l202 235l52 51v4
c-26 -4 -51.333 -6 -76 -6h-316v103h539v-74l-244 -283c68.667 -8 128 -33.667 178 -77c50.667 -44 76 -107 76 -189c0 -79.333 -29.333 -147.333 -88 -204s-131 -85 -217 -85c-36.667 0 -71.667 5 -105 15c-35.333 10.667 -62.666 22 -81.999 34
c-28.667 18 -47.667 30.667 -57 38c-18.667 15.333 -31 26.666 -37 33.999zM561.001 0.00195312l688 1440h119l-686 -1440h-121zM1180 233.002v78l434 580h112v-555h134v-103h-134v-233h-112v233h-434zM1319 336.002l295 -0.000976562v278l6 127h-4
c-20.667 -35.333 -42.667 -68.666 -66 -99.999l-231 -301v-4z" />
    <glyph glyph-name="questiondown" unicode="&#xbf;" horiz-adv-x="901" 
d="M92 -68c0 62 12.6699 118.332 38.0029 168.999c24.667 48.667 55 90.667 91 126s72 68.333 108 99c37.333 32 68 68.333 92 109c25.333 42.667 38 88 38 136v82h137v-88c0 -60 -12.333 -113.667 -37 -161c-26 -49.333 -55.667 -90.333 -89 -123l-104 -100
c-35.333 -32.667 -65.333 -69 -90 -109c-24 -39.333 -36 -83.666 -36 -132.999c0 -68 25 -124 75 -168c51.333 -45.333 115.666 -68 192.999 -68c38.667 0 80 7.33301 124 22c42 14 73 28 93 42l31 22l75 -102l-40 -32c-16.667 -12 -54.334 -29.333 -113.001 -52
c-56.667 -22 -115.334 -33 -176.001 -33c-117.333 0 -215 34 -293 102s-117 154.667 -117 260zM449.003 871.999v158h157v-158h-157z" />
    <glyph glyph-name="Agrave" unicode="&#xc0;" horiz-adv-x="1261" 
d="M27 0l528 1440h152l528 -1440h-150l-165 459h-580l-164 -459h-149zM381 582h496.001l-189 522l-55 186h-4c-16.667 -66 -35.334 -128 -56.001 -186zM393.001 1784h162l141 -244h-127z" />
    <glyph glyph-name="Aacute" unicode="&#xc1;" horiz-adv-x="1261" 
d="M27 0l528 1440h152l528 -1440h-150l-165 459h-580l-164 -459h-149zM381 582h496.001l-189 522l-55 186h-4c-16.667 -66 -35.334 -128 -56.001 -186zM565.001 1540l142 244h161l-176 -244h-127z" />
    <glyph glyph-name="Acircumflex" unicode="&#xc2;" horiz-adv-x="1261" 
d="M27 0l528 1440h152l528 -1440h-150l-165 459h-580l-164 -459h-149zM381 582h496.001l-189 522l-55 186h-4c-16.667 -66 -35.334 -128 -56.001 -186zM383.001 1540l170 244h154l172 -244h-136l-110 166h-4l-111 -166h-135z" />
    <glyph glyph-name="Atilde" unicode="&#xc3;" horiz-adv-x="1261" 
d="M27 0l528 1440h152l528 -1440h-150l-165 459h-580l-164 -459h-149zM311 1546c0 160 63.001 240 189.001 240c40 0 74.333 -12.333 103 -37c34 -29.333 61 -54 81 -74c24.667 -24.667 49.334 -37 74.001 -37c54.667 0 82 47.333 82 142h110c0 -160 -62.667 -240 -188 -240
c-40.667 0 -75.334 12.333 -104.001 37c-26 22 -52.667 46.333 -80 73c-24.667 24 -49.334 36 -74.001 36c-53.333 0 -80 -46.667 -80 -140h-113zM381.001 582h496.001l-189 522l-55 186h-4c-16.667 -66 -35.334 -128 -56.001 -186z" />
    <glyph glyph-name="Adieresis" unicode="&#xc4;" horiz-adv-x="1261" 
d="M27 0l528 1440h152l528 -1440h-150l-165 459h-580l-164 -459h-149zM381 582h496.001l-189 522l-55 186h-4c-16.667 -66 -35.334 -128 -56.001 -186zM414.001 1608v176h125v-176h-125zM723.001 1608v176h127v-176h-127z" />
    <glyph glyph-name="Aring" unicode="&#xc5;" horiz-adv-x="1261" 
d="M27 0l528 1440h152l528 -1440h-150l-165 459h-580l-164 -459h-149zM381 582h496.001l-189 522l-55 186h-4c-16.667 -66 -35.334 -128 -56.001 -186zM477.001 1663c0 42 15 76.6689 45 104.002c30.667 27.333 67 41 109 41c41.333 0 77.666 -13.667 108.999 -41
c30.667 -26.667 46 -61.334 46 -104.001s-15.333 -77.334 -46 -104.001c-31.333 -27.333 -67.666 -41 -108.999 -41c-42 0 -78.333 13.667 -109 41c-30 27.333 -45 62 -45 104zM565.001 1663c0 -18 6.33301 -34.001 19 -48.001c12 -13.333 27.667 -20 47 -20
c20.667 0 37 6.66699 49 20c12 12.667 18 28.667 18 48c0 20.667 -6 37.334 -18 50.001c-12 13.333 -28.333 20 -49 20c-19.333 0 -35 -6.66699 -47 -20c-12.667 -14 -19 -30.667 -19 -50z" />
    <glyph glyph-name="AE" unicode="&#xc6;" horiz-adv-x="1746" 
d="M20 0l592 1440h985v-127h-669v-525h547v-126h-547v-535h706v-127h-848v664h-348l-268 -664h-150zM489 786h297v527h-84z" />
    <glyph glyph-name="Ccedilla" unicode="&#xc7;" horiz-adv-x="1492" 
d="M115 729c0 208.667 68.9971 383.332 206.997 523.999s310 211 516 211c66 0 127.667 -6.33301 185 -19c60.667 -13.333 109.334 -28.666 146.001 -45.999c42 -20 76 -38 102 -54c22 -14 43.333 -29.667 64 -47l21 -20l-76 -104c-0.666992 0.666992 -7 6.33398 -19 17.001
c-7.33301 6.66699 -26.666 19.667 -57.999 39c-27.333 16.667 -57.666 32.667 -90.999 48c-26.667 12 -67 24.667 -121 38c-46 11.333 -95.667 17 -149 17c-168 0 -306.667 -57.667 -416 -173s-164 -258.333 -164 -429c0 -174 55 -321.667 165 -443s249.667 -182 419 -182
c53.333 0 106.666 6.66699 159.999 20c52.667 13.333 96.334 29.333 131.001 48c36.667 20 68.334 39 95.001 57c19.333 13.333 40 29.333 62 48l19 20l82 -100l-23 -23c-10.667 -10.667 -32.334 -28 -65.001 -52c-34 -24.667 -70.333 -47.334 -109 -68.001
c-38 -20 -87.333 -38 -148 -54c-65.333 -17.333 -127.333 -26.333 -186 -27l-16 -88c41.333 -6.66699 75.666 -22.667 102.999 -48c26.667 -24.667 40 -57 40 -97c0 -56.667 -18.667 -97.667 -56 -123c-38 -26 -84.667 -39 -140 -39l-103 10v99
c28 -8.66699 56.667 -13 86 -13c70 0 105 23.333 105 70s-39 70 -117 70l-31 -2l39 166c-193.333 16 -351.666 94.667 -474.999 236c-122.667 140.667 -184 311.667 -184 513z" />
    <glyph glyph-name="Egrave" unicode="&#xc8;" horiz-adv-x="1169" 
d="M209 0v1440h811v-127h-670v-525h547v-126h-547v-535h707v-127h-848zM399 1784h162l141 -244h-127z" />
    <glyph glyph-name="Eacute" unicode="&#xc9;" horiz-adv-x="1169" 
d="M209 0v1440h811v-127h-670v-525h547v-126h-547v-535h707v-127h-848zM571 1540l142 244h161l-176 -244h-127z" />
    <glyph glyph-name="Ecircumflex" unicode="&#xca;" horiz-adv-x="1169" 
d="M209 0v1440h811v-127h-670v-525h547v-126h-547v-535h707v-127h-848zM391 1540l170 244h154l172 -244h-135l-111 166h-4l-111 -166h-135z" />
    <glyph glyph-name="Edieresis" unicode="&#xcb;" horiz-adv-x="1169" 
d="M209 0v1440h811v-127h-670v-525h547v-126h-547v-535h707v-127h-848zM422 1608v176h125v-176h-125zM731 1608v176h127v-176h-127z" />
    <glyph glyph-name="Igrave" unicode="&#xcc;" horiz-adv-x="559" 
d="M43 1784h162l141 -244h-127zM209 0v1440h141v-1440h-141z" />
    <glyph glyph-name="Iacute" unicode="&#xcd;" horiz-adv-x="559" 
d="M209 0v1440h141v-1440h-141zM213 1540l141 244h162l-176 -244h-127z" />
    <glyph glyph-name="Icircumflex" unicode="&#xce;" horiz-adv-x="559" 
d="M33 1540l170 244h153l172 -244h-135l-110 166h-4l-111 -166h-135zM209 0v1440h141v-1440h-141z" />
    <glyph glyph-name="Idieresis" unicode="&#xcf;" horiz-adv-x="559" 
d="M63 1608v176h125v-176h-125zM209 0v1440h141v-1440h-141zM373 1608v176h127v-176h-127z" />
    <glyph glyph-name="Eth" unicode="&#xd0;" horiz-adv-x="1544" 
d="M119 662l0.000976562 122h123v656h463c219.333 0 394.666 -64 525.999 -192c130.667 -128 196 -303.667 196 -527c0 -227.333 -65.333 -404.333 -196 -531s-306 -190 -526 -190h-463v662h-123zM383.001 127l307 0.000976562c180 0 323.333 51.667 430 155
s160 249.666 160 438.999c0 188 -53.333 333.667 -160 437s-250 155 -430 155h-307v-529h342v-122h-342v-535z" />
    <glyph glyph-name="Ntilde" unicode="&#xd1;" horiz-adv-x="1542" 
d="M209 0v1440h137l735 -1037l119 -194h4c-8 78.667 -12 143.334 -12 194.001v1037h141v-1440h-137l-735 1036l-119 195h-4c8 -79.333 12 -144.333 12 -195v-1036h-141zM453 1546c0 160 62.666 240 187.999 240c40 0 74.333 -12.333 103 -37c34 -29.333 61 -54 81 -74
c24.667 -24.667 49.334 -37 74.001 -37c54.667 0 82 47.333 82 142h111c0 -160 -63 -240 -189 -240c-40 0 -74.333 12.333 -103 37c-32.667 28 -59.667 52.333 -81 73c-25.333 24 -50 36 -74 36c-53.333 0 -80 -46.667 -80 -140h-112z" />
    <glyph glyph-name="Ograve" unicode="&#xd2;" horiz-adv-x="1687" 
d="M111 729c0 206 71 380 213 522s315.333 213 520 213s378 -71 520 -213s213 -316 213 -522c0 -210.667 -71.333 -388.667 -214 -534c-143.333 -146.667 -316.333 -220 -519 -220s-375.667 73.333 -519 220c-142.667 145.333 -214 323.333 -214 534zM258 729
c0 -174 56.667 -321.333 170 -442s252 -181 416 -181c161.333 0 299.333 60.333 414 181s172 268 172 442c0 170 -57.333 313.333 -172 430c-114 116 -252 174 -414 174c-164 0 -302.667 -58 -416 -174c-113.333 -116.667 -170 -260 -170 -430zM604 1784h162l141 -244h-127z
" />
    <glyph glyph-name="Oacute" unicode="&#xd3;" horiz-adv-x="1687" 
d="M111 729c0 206 71 380 213 522s315.333 213 520 213s378 -71 520 -213s213 -316 213 -522c0 -210.667 -71.333 -388.667 -214 -534c-143.333 -146.667 -316.333 -220 -519 -220s-375.667 73.333 -519 220c-142.667 145.333 -214 323.333 -214 534zM258 729
c0 -174 56.667 -321.333 170 -442s252 -181 416 -181c161.333 0 299.333 60.333 414 181s172 268 172 442c0 170 -57.333 313.333 -172 430c-114 116 -252 174 -414 174c-164 0 -302.667 -58 -416 -174c-113.333 -116.667 -170 -260 -170 -430zM776 1540l142 244h161
l-176 -244h-127z" />
    <glyph glyph-name="Ocircumflex" unicode="&#xd4;" horiz-adv-x="1687" 
d="M111 729c0 206 71 380 213 522s315.333 213 520 213s378 -71 520 -213s213 -316 213 -522c0 -210.667 -71.333 -388.667 -214 -534c-143.333 -146.667 -316.333 -220 -519 -220s-375.667 73.333 -519 220c-142.667 145.333 -214 323.333 -214 534zM258 729
c0 -174 56.667 -321.333 170 -442s252 -181 416 -181c161.333 0 299.333 60.333 414 181s172 268 172 442c0 170 -57.333 313.333 -172 430c-114 116 -252 174 -414 174c-164 0 -302.667 -58 -416 -174c-113.333 -116.667 -170 -260 -170 -430zM596 1540l170 244h154
l172 -244h-136l-110 166h-4l-111 -166h-135z" />
    <glyph glyph-name="Otilde" unicode="&#xd5;" horiz-adv-x="1687" 
d="M111 729c0 206 71 380 213 522s315.333 213 520 213s378 -71 520 -213s213 -316 213 -522c0 -210.667 -71.333 -388.667 -214 -534c-143.333 -146.667 -316.333 -220 -519 -220s-375.667 73.333 -519 220c-142.667 145.333 -214 323.333 -214 534zM258 729
c0 -174 56.667 -321.333 170 -442s252 -181 416 -181c161.333 0 299.333 60.333 414 181s172 268 172 442c0 170 -57.333 313.333 -172 430c-114 116 -252 174 -414 174c-164 0 -302.667 -58 -416 -174c-113.333 -116.667 -170 -260 -170 -430zM524 1546
c0 160 63.001 240 189.001 240c40 0 74.333 -12.333 103 -37c34 -29.333 61 -54 81 -74c24.667 -24.667 49.334 -37 74.001 -37c54.667 0 82 47.333 82 142h110c0 -160 -62.667 -240 -188 -240c-40.667 0 -75.334 12.333 -104.001 37c-26 22 -52.667 46.333 -80 73
c-24.667 24 -49.334 36 -74.001 36c-53.333 0 -80 -46.667 -80 -140h-113z" />
    <glyph glyph-name="Odieresis" unicode="&#xd6;" horiz-adv-x="1687" 
d="M111 729c0 206 71 380 213 522s315.333 213 520 213s378 -71 520 -213s213 -316 213 -522c0 -210.667 -71.333 -388.667 -214 -534c-143.333 -146.667 -316.333 -220 -519 -220s-375.667 73.333 -519 220c-142.667 145.333 -214 323.333 -214 534zM258 729
c0 -174 56.667 -321.333 170 -442s252 -181 416 -181c161.333 0 299.333 60.333 414 181s172 268 172 442c0 170 -57.333 313.333 -172 430c-114 116 -252 174 -414 174c-164 0 -302.667 -58 -416 -174c-113.333 -116.667 -170 -260 -170 -430zM627 1608v176h125v-176h-125z
M936 1608v176h127v-176h-127z" />
    <glyph glyph-name="multiply" unicode="&#xd7;" horiz-adv-x="1341" 
d="M147 84l443 498l-443 497l84 84l439 -493l438 493l84 -84l-444 -497l444 -498l-84 -84l-438 494l-439 -494z" />
    <glyph glyph-name="Oslash" unicode="&#xd8;" horiz-adv-x="1693" 
d="M115 729c0 206 71 380 213 522s315.333 213 520 213c138 0 267 -36 387 -108l96 135l84 -61l-96 -136c81.333 -67.333 145.333 -150.666 192 -249.999s70 -204.333 70 -315c0 -210.667 -71.333 -388.667 -214 -534c-143.333 -146.667 -316.333 -220 -519 -220
c-142 0 -273 38.333 -393 115l-99 -139l-86 59l101 142c-80.667 70 -143.667 155 -189 255c-44.667 99.333 -67 206.666 -67 321.999zM262 729c0 -185.333 63.666 -339.667 190.999 -463l702 979c-95.333 58.667 -197.666 88 -306.999 88c-164 0 -302.667 -58 -416 -174
c-113.333 -116.667 -170 -260 -170 -430zM534.999 200.999c96.667 -63.333 201 -95 313 -95c162 0 300.333 60.333 415 181c114 120 171 267.333 171 442c0 183.333 -65 334.333 -195 453z" />
    <glyph glyph-name="Ugrave" unicode="&#xd9;" horiz-adv-x="1482" 
d="M190 502v938h144v-936c0 -123.333 36.667 -220.333 110 -291c74.667 -71.333 173.667 -107 297 -107c125.333 0 225 36 299 108s111 170 111 294v932h141v-938c0 -158.667 -50.333 -286 -151 -382c-102 -96.667 -234.667 -145 -398 -145c-164 0 -297.333 48.333 -400 145
c-102 96 -153 223.333 -153 382zM504 1784h162l141 -244h-127z" />
    <glyph glyph-name="Uacute" unicode="&#xda;" horiz-adv-x="1482" 
d="M190 502v938h144v-936c0 -123.333 36.667 -220.333 110 -291c74.667 -71.333 173.667 -107 297 -107c125.333 0 225 36 299 108s111 170 111 294v932h141v-938c0 -158.667 -50.333 -286 -151 -382c-102 -96.667 -234.667 -145 -398 -145c-164 0 -297.333 48.333 -400 145
c-102 96 -153 223.333 -153 382zM676 1540l141 244h162l-176 -244h-127z" />
    <glyph glyph-name="Ucircumflex" unicode="&#xdb;" horiz-adv-x="1482" 
d="M190 502v938h144v-936c0 -123.333 36.667 -220.333 110 -291c74.667 -71.333 173.667 -107 297 -107c125.333 0 225 36 299 108s111 170 111 294v932h141v-938c0 -158.667 -50.333 -286 -151 -382c-102 -96.667 -234.667 -145 -398 -145c-164 0 -297.333 48.333 -400 145
c-102 96 -153 223.333 -153 382zM494 1540l170 244h153l172 -244h-135l-111 166h-4l-110 -166h-135z" />
    <glyph glyph-name="Udieresis" unicode="&#xdc;" horiz-adv-x="1482" 
d="M190 502v938h144v-936c0 -123.333 36.667 -220.333 110 -291c74.667 -71.333 173.667 -107 297 -107c125.333 0 225 36 299 108s111 170 111 294v932h141v-938c0 -158.667 -50.333 -286 -151 -382c-102 -96.667 -234.667 -145 -398 -145c-164 0 -297.333 48.333 -400 145
c-102 96 -153 223.333 -153 382zM524 1608v176h125v-176h-125zM834 1608v176h127v-176h-127z" />
    <glyph glyph-name="Yacute" unicode="&#xdd;" horiz-adv-x="1175" 
d="M31 1440h162l305 -522l88 -173h4c30.667 68 60 125.667 88 173l305 522h160l-484 -822v-618h-143v618zM520 1540l142 244h161l-176 -244h-127z" />
    <glyph glyph-name="Thorn" unicode="&#xde;" horiz-adv-x="1226" 
d="M209 0l0.000976562 1440h141v-256h357c129.333 0 235.666 -39.667 318.999 -119s125 -185 125 -317c0 -130.667 -42 -236.667 -126 -318c-83.333 -80.667 -191 -121 -323 -121h-352v-309h-141zM350.001 436h338c96.667 0 173.667 27.667 231 83
c56.667 54.667 85 131 85 229c0 96 -28 171.667 -84 227c-55.333 54.667 -132 82 -230 82h-340v-621z" />
    <glyph glyph-name="germandbls" unicode="&#xdf;" horiz-adv-x="1173" 
d="M168 0l0.00195312 1087c0 116 41 208 123 276c81.333 67.333 177.666 101 288.999 101c106.667 0 193 -30 259 -90s99 -131.667 99 -215c0 -47.333 -12 -92 -36 -134c-22.667 -40 -48.667 -73 -78 -99c-28.667 -26 -54.667 -53.333 -78 -82
c-23.333 -29.333 -35 -58.666 -35 -87.999c0 -30.667 20.667 -63.334 62 -98.001c43.333 -36 89 -68 137 -96c50 -29.333 96 -69.333 138 -120c41.333 -50 62 -104.333 62 -163c0 -94 -32 -166.333 -96 -217c-63.333 -50.667 -142 -76 -236 -76
c-58.667 0 -112.667 5.33301 -162 16s-85.333 21.667 -108 33l-33 16v133c81.333 -48.667 179 -73 293 -73c55.333 0 102.666 14.667 141.999 44s59 72 59 128c0 42.667 -21 84 -63 124c-44 42 -90 75.667 -138 101c-49.333 26 -95.333 61.333 -138 106
c-42 44 -63 90 -63 138c0 39.333 12 77.333 36 114c22.667 35.333 48.667 66 78 92c26.667 24 52.667 54.333 78 91c24 35.333 36 71.333 36 108c0 48 -19.667 90 -59 126c-38.667 36 -93 54 -163 54c-71.333 0 -133.333 -23 -186 -69c-53.333 -46 -80 -109.667 -80 -191
v-1077h-139z" />
    <glyph glyph-name="agrave" unicode="&#xe0;" 
d="M84 281c0 237.333 210.332 356 630.999 356h57v27c0 177.333 -85.333 266 -256 266c-48.667 0 -98 -8.33301 -148 -25c-48 -16 -84 -32.333 -108 -49l-35 -25l-65 107c15.333 12 30 22.667 44 32c18.667 12 60.334 29.333 125.001 52c63.333 22 129 33 197 33
c124.667 0 220 -34 286 -102s99 -166 99 -294v-659h-133v113l4 86h-4l-11 -24c-4.66699 -10 -16.667 -28 -36 -54c-20 -27.333 -41.333 -50 -64 -68c-24.667 -19.333 -57.667 -37 -99 -53c-44 -16.667 -88.667 -25 -134 -25c-93.333 0 -175.333 26.667 -246 80
c-69.333 52.667 -104 128 -104 226zM226.999 289c0 -51.333 20.334 -96.668 61.001 -136.001s97 -59 169 -59c92 0 167.667 39.667 227 119c58.667 78.667 88 166.667 88 264v45h-59c-52.667 0 -102.334 -1.66699 -149.001 -5
c-42.667 -3.33301 -92.667 -11.666 -150 -24.999c-58.667 -14 -104.667 -38 -138 -72c-32.667 -33.333 -49 -77 -49 -131zM291 1440h162l141 -244h-127z" />
    <glyph glyph-name="aacute" unicode="&#xe1;" 
d="M84 281c0 237.333 210.332 356 630.999 356h57v27c0 177.333 -85.333 266 -256 266c-48.667 0 -98 -8.33301 -148 -25c-48 -16 -84 -32.333 -108 -49l-35 -25l-65 107c15.333 12 30 22.667 44 32c18.667 12 60.334 29.333 125.001 52c63.333 22 129 33 197 33
c124.667 0 220 -34 286 -102s99 -166 99 -294v-659h-133v113l4 86h-4l-11 -24c-4.66699 -10 -16.667 -28 -36 -54c-20 -27.333 -41.333 -50 -64 -68c-24.667 -19.333 -57.667 -37 -99 -53c-44 -16.667 -88.667 -25 -134 -25c-93.333 0 -175.333 26.667 -246 80
c-69.333 52.667 -104 128 -104 226zM226.999 289c0 -51.333 20.334 -96.668 61.001 -136.001s97 -59 169 -59c92 0 167.667 39.667 227 119c58.667 78.667 88 166.667 88 264v45h-59c-52.667 0 -102.334 -1.66699 -149.001 -5
c-42.667 -3.33301 -92.667 -11.666 -150 -24.999c-58.667 -14 -104.667 -38 -138 -72c-32.667 -33.333 -49 -77 -49 -131zM461 1196l141 244h162l-176 -244h-127z" />
    <glyph glyph-name="acircumflex" unicode="&#xe2;" 
d="M84 281c0 237.333 210.332 356 630.999 356h57v27c0 177.333 -85.333 266 -256 266c-48.667 0 -98 -8.33301 -148 -25c-48 -16 -84 -32.333 -108 -49l-35 -25l-65 107c15.333 12 30 22.667 44 32c18.667 12 60.334 29.333 125.001 52c63.333 22 129 33 197 33
c124.667 0 220 -34 286 -102s99 -166 99 -294v-659h-133v113l4 86h-4l-11 -24c-4.66699 -10 -16.667 -28 -36 -54c-20 -27.333 -41.333 -50 -64 -68c-24.667 -19.333 -57.667 -37 -99 -53c-44 -16.667 -88.667 -25 -134 -25c-93.333 0 -175.333 26.667 -246 80
c-69.333 52.667 -104 128 -104 226zM226.999 289c0 -51.333 20.334 -96.668 61.001 -136.001s97 -59 169 -59c92 0 167.667 39.667 227 119c58.667 78.667 88 166.667 88 264v45h-59c-52.667 0 -102.334 -1.66699 -149.001 -5
c-42.667 -3.33301 -92.667 -11.666 -150 -24.999c-58.667 -14 -104.667 -38 -138 -72c-32.667 -33.333 -49 -77 -49 -131zM283 1196l170 244h153l172 -244h-135l-111 166h-4l-110 -166h-135z" />
    <glyph glyph-name="atilde" unicode="&#xe3;" 
d="M84 281c0 237.333 210.332 356 630.999 356h57v27c0 177.333 -85.333 266 -256 266c-48.667 0 -98 -8.33301 -148 -25c-48 -16 -84 -32.333 -108 -49l-35 -25l-65 107c15.333 12 30 22.667 44 32c18.667 12 60.334 29.333 125.001 52c63.333 22 129 33 197 33
c124.667 0 220 -34 286 -102s99 -166 99 -294v-659h-133v113l4 86h-4l-11 -24c-4.66699 -10 -16.667 -28 -36 -54c-20 -27.333 -41.333 -50 -64 -68c-24.667 -19.333 -57.667 -37 -99 -53c-44 -16.667 -88.667 -25 -134 -25c-93.333 0 -175.333 26.667 -246 80
c-69.333 52.667 -104 128 -104 226zM210.999 1202c0 160 62.666 240 187.999 240c40.667 0 75.334 -12.333 104.001 -37c34 -29.333 61 -54 81 -74c24.667 -24.667 49 -37 73 -37c54.667 0 82 47.333 82 142h111c0 -160 -63 -240 -189 -240c-40 0 -74.333 12.333 -103 37
c-32.667 28 -59.667 52.333 -81 73c-24 23.333 -48.667 35 -74 35c-52.667 0 -79 -46.333 -79 -139h-113zM226.998 289c0 -51.333 20.334 -96.668 61.001 -136.001s97 -59 169 -59c92 0 167.667 39.667 227 119c58.667 78.667 88 166.667 88 264v45h-59
c-52.667 0 -102.334 -1.66699 -149.001 -5c-42.667 -3.33301 -92.667 -11.666 -150 -24.999c-58.667 -14 -104.667 -38 -138 -72c-32.667 -33.333 -49 -77 -49 -131z" />
    <glyph glyph-name="adieresis" unicode="&#xe4;" 
d="M84 281c0 237.333 210.332 356 630.999 356h57v27c0 177.333 -85.333 266 -256 266c-48.667 0 -98 -8.33301 -148 -25c-48 -16 -84 -32.333 -108 -49l-35 -25l-65 107c15.333 12 30 22.667 44 32c18.667 12 60.334 29.333 125.001 52c63.333 22 129 33 197 33
c124.667 0 220 -34 286 -102s99 -166 99 -294v-659h-133v113l4 86h-4l-11 -24c-4.66699 -10 -16.667 -28 -36 -54c-20 -27.333 -41.333 -50 -64 -68c-24.667 -19.333 -57.667 -37 -99 -53c-44 -16.667 -88.667 -25 -134 -25c-93.333 0 -175.333 26.667 -246 80
c-69.333 52.667 -104 128 -104 226zM226.999 289c0 -51.333 20.334 -96.668 61.001 -136.001s97 -59 169 -59c92 0 167.667 39.667 227 119c58.667 78.667 88 166.667 88 264v45h-59c-52.667 0 -102.334 -1.66699 -149.001 -5
c-42.667 -3.33301 -92.667 -11.666 -150 -24.999c-58.667 -14 -104.667 -38 -138 -72c-32.667 -33.333 -49 -77 -49 -131zM313 1264v176h125v-176h-125zM623 1264v176h127v-176h-127z" />
    <glyph glyph-name="aring" unicode="&#xe5;" 
d="M84 281c0 237.333 210.332 356 630.999 356h57v27c0 177.333 -85.333 266 -256 266c-48.667 0 -98 -8.33301 -148 -25c-48 -16 -84 -32.333 -108 -49l-35 -25l-65 107c15.333 12 30 22.667 44 32c18.667 12 60.334 29.333 125.001 52c63.333 22 129 33 197 33
c124.667 0 220 -34 286 -102s99 -166 99 -294v-659h-133v113l4 86h-4l-11 -24c-4.66699 -10 -16.667 -28 -36 -54c-20 -27.333 -41.333 -50 -64 -68c-24.667 -19.333 -57.667 -37 -99 -53c-44 -16.667 -88.667 -25 -134 -25c-93.333 0 -175.333 26.667 -246 80
c-69.333 52.667 -104 128 -104 226zM226.999 289c0 -51.333 20.334 -96.668 61.001 -136.001s97 -59 169 -59c92 0 167.667 39.667 227 119c58.667 78.667 88 166.667 88 264v45h-59c-52.667 0 -102.334 -1.66699 -149.001 -5
c-42.667 -3.33301 -92.667 -11.666 -150 -24.999c-58.667 -14 -104.667 -38 -138 -72c-32.667 -33.333 -49 -77 -49 -131zM375 1319c0 42 15.001 76.668 45.001 104.001c30.667 27.333 66.667 41 108 41c42 0 78.667 -13.667 110 -41c30.667 -26.667 46 -61.334 46 -104.001
c0 -43.333 -15.333 -78.333 -46 -105s-67.334 -40 -110.001 -40s-78.667 13.333 -108 40c-30 26.667 -45 61.667 -45 105zM463.001 1319c0 -19.333 6 -35.333 18 -48c12 -13.333 27.667 -20 47 -20c21.333 0 38 6.66699 50 20c12 12.667 18 28.667 18 48
c0 20.667 -6 37.334 -18 50.001c-12 13.333 -28.667 20 -50 20c-19.333 0 -35 -6.66699 -47 -20c-12 -12.667 -18 -29.334 -18 -50.001z" />
    <glyph glyph-name="ae" unicode="&#xe6;" horiz-adv-x="1781" 
d="M84 281c0 46 7.99902 87.668 23.999 125.001s35.333 67.666 58 90.999c22 23.333 52.333 44 91 62c38 18 73 31.333 105 40c32.667 8.66699 72.334 15.667 119.001 21c36.667 4 74.667 6.66699 114 8c19.333 0.666992 55 1 107 1h68v35c0 177.333 -87.333 266 -262 266
c-47.333 0 -95.333 -8.33301 -144 -25c-46.667 -16 -82 -32.333 -106 -49l-35 -25l-63 105c14 11.333 28.333 22.333 43 33c16.667 12 57 29.667 121 53c61.333 22 125.333 33 192 33c186.667 0 302.667 -71 348 -213h4c85.333 142 215 213 389 213
c132.667 0 237 -44.667 313 -134c75.333 -88 113 -197.667 113 -329l-4 -78h-774c3.33301 -132 40.333 -234 111 -306s162 -108 274 -108c54 0 107.333 10.667 160 32c48.667 20 87 41 115 63l37 30l63 -106c-8 -8 -23.667 -21.333 -47 -40
c-18.667 -14.667 -62 -36 -130 -64c-65.333 -26.667 -133.333 -40 -204 -40c-105.333 0 -197.333 25.333 -276 76c-80.667 52 -139.667 122.333 -177 211h-4c-4.66699 -16.667 -11 -33.667 -19 -51c-10.667 -22 -26 -46.333 -46 -73c-22.667 -30 -47 -56 -73 -78
s-61.333 -41.667 -106 -59s-93 -26 -145 -26c-100 0 -184 27 -252 81s-102 129 -102 225zM226.999 289.001c0 -53.333 20.667 -99 62 -137c42 -38.667 98.667 -58 170 -58c92.667 0 168 40 226 120s87 168.333 87 265v35h-121c-54.667 0 -102 -2 -142 -6s-84 -13 -132 -27
c-49.333 -14 -86.333 -37 -111 -69c-26 -33.333 -39 -74.333 -39 -123zM912.999 629.001h628.999c-4 100 -33.667 176.333 -89 229c-54.667 52 -122 78 -202 78c-89.333 0 -163.666 -26.333 -222.999 -79c-60.667 -54 -99 -130 -115 -228z" />
    <glyph glyph-name="ccedilla" unicode="&#xe7;" horiz-adv-x="1126" 
d="M98 514c0 156.667 52.002 285.996 156.002 387.996s232.333 153 385 153c43.333 0 88.333 -5.33301 135 -16c41.333 -9.33301 77.333 -21.666 108 -36.999c22.667 -11.333 47 -25.666 73 -42.999c20.667 -14 36 -26.333 46 -37l15 -15l-72 -104
c-4.66699 6 -17 17.667 -37 35c-15.333 13.333 -49.666 31.666 -102.999 54.999c-54 23.333 -107.667 35 -161 35c-115.333 0 -211 -38.667 -287 -116s-114 -176.666 -114 -297.999c0 -120.667 38.667 -219.667 116 -297c78 -78 174.333 -117 289 -117
c37.333 0 75.666 5.33301 114.999 16c36 9.33301 66.667 21.333 92 36c23.333 13.333 45.666 27.333 66.999 42s35.333 26.334 42 35.001l14 17l63 -109c-11.333 -12.667 -26 -27 -44 -43c-19.333 -17.333 -62.333 -40.666 -129 -69.999c-68 -30 -138 -46.333 -210 -49
l-16 -88c41.333 -6.66699 75.666 -22.667 102.999 -48c26.667 -24.667 40 -57 40 -97c0 -56.667 -18.667 -97.667 -56 -123c-38 -26 -84.667 -39 -140 -39l-103 10v99c28 -8.66699 56.667 -13 86 -13c70 0 105 23.333 105 70s-39 70 -117 70l-31 -2l39 166
c-138 15.333 -250.667 72 -338 170c-87.333 98.667 -131 220 -131 364z" />
    <glyph glyph-name="egrave" unicode="&#xe8;" horiz-adv-x="1132" 
d="M96 514c0 164 48.999 294.999 146.999 392.999c98.667 98.667 219 148 361 148c137.333 0 243.333 -45.333 318 -136s112 -203.667 112 -339l-4 -72h-790c3.33301 -128 42.333 -227.667 117 -299c76.667 -72.667 170.667 -109 282 -109c55.333 0 109.333 10.667 162 32
c47.333 19.333 85.333 40.333 114 63l37 30l64 -106c-9.33301 -9.33301 -25.333 -22.666 -48 -39.999c-20 -14.667 -63.667 -36 -131 -64c-65.333 -26.667 -132.666 -40 -201.999 -40c-154 0 -282.333 50.667 -385 152s-154 230.333 -154 387zM245.999 622.999
l646.999 -0.000976562c-4 102.667 -33.333 180.667 -88 234c-54.667 54 -123 81 -205 81c-89.333 0 -166.666 -27.667 -231.999 -83s-106 -132.666 -122 -231.999zM368.998 1440h161l142 -244h-127z" />
    <glyph glyph-name="eacute" unicode="&#xe9;" horiz-adv-x="1132" 
d="M96 514c0 164 48.999 294.999 146.999 392.999c98.667 98.667 219 148 361 148c137.333 0 243.333 -45.333 318 -136s112 -203.667 112 -339l-4 -72h-790c3.33301 -128 42.333 -227.667 117 -299c76.667 -72.667 170.667 -109 282 -109c55.333 0 109.333 10.667 162 32
c47.333 19.333 85.333 40.333 114 63l37 30l64 -106c-9.33301 -9.33301 -25.333 -22.666 -48 -39.999c-20 -14.667 -63.667 -36 -131 -64c-65.333 -26.667 -132.666 -40 -201.999 -40c-154 0 -282.333 50.667 -385 152s-154 230.333 -154 387zM245.999 622.999
l646.999 -0.000976562c-4 102.667 -33.333 180.667 -88 234c-54.667 54 -123 81 -205 81c-89.333 0 -166.666 -27.667 -231.999 -83s-106 -132.666 -122 -231.999zM538.998 1196l141 244h162l-176 -244h-127z" />
    <glyph glyph-name="ecircumflex" unicode="&#xea;" horiz-adv-x="1132" 
d="M96 514c0 164 48.999 294.999 146.999 392.999c98.667 98.667 219 148 361 148c137.333 0 243.333 -45.333 318 -136s112 -203.667 112 -339l-4 -72h-790c3.33301 -128 42.333 -227.667 117 -299c76.667 -72.667 170.667 -109 282 -109c55.333 0 109.333 10.667 162 32
c47.333 19.333 85.333 40.333 114 63l37 30l64 -106c-9.33301 -9.33301 -25.333 -22.666 -48 -39.999c-20 -14.667 -63.667 -36 -131 -64c-65.333 -26.667 -132.666 -40 -201.999 -40c-154 0 -282.333 50.667 -385 152s-154 230.333 -154 387zM245.999 622.999
l646.999 -0.000976562c-4 102.667 -33.333 180.667 -88 234c-54.667 54 -123 81 -205 81c-89.333 0 -166.666 -27.667 -231.999 -83s-106 -132.666 -122 -231.999zM357.998 1196l170 244h154l172 -244h-135l-111 166h-4l-110 -166h-136z" />
    <glyph glyph-name="edieresis" unicode="&#xeb;" horiz-adv-x="1132" 
d="M96 514c0 164 48.999 294.999 146.999 392.999c98.667 98.667 219 148 361 148c137.333 0 243.333 -45.333 318 -136s112 -203.667 112 -339l-4 -72h-790c3.33301 -128 42.333 -227.667 117 -299c76.667 -72.667 170.667 -109 282 -109c55.333 0 109.333 10.667 162 32
c47.333 19.333 85.333 40.333 114 63l37 30l64 -106c-9.33301 -9.33301 -25.333 -22.666 -48 -39.999c-20 -14.667 -63.667 -36 -131 -64c-65.333 -26.667 -132.666 -40 -201.999 -40c-154 0 -282.333 50.667 -385 152s-154 230.333 -154 387zM245.999 622.999
l646.999 -0.000976562c-4 102.667 -33.333 180.667 -88 234c-54.667 54 -123 81 -205 81c-89.333 0 -166.666 -27.667 -231.999 -83s-106 -132.666 -122 -231.999zM388.998 1264v176h125v-176h-125zM697.998 1264v176h127v-176h-127z" />
    <glyph glyph-name="igrave" unicode="&#xec;" horiz-adv-x="475" 
d="M0 1440h162l141 -244h-127zM168 0v1030h139v-1030h-139z" />
    <glyph glyph-name="iacute" unicode="&#xed;" horiz-adv-x="475" 
d="M168 0v1030h139v-1030h-139zM172 1196l141 244h162l-176 -244h-127z" />
    <glyph glyph-name="icircumflex" unicode="&#xee;" horiz-adv-x="475" 
d="M-8 1196l170 244h153l172 -244h-135l-110 166h-4l-111 -166h-135zM168 0v1030h139v-1030h-139z" />
    <glyph glyph-name="idieresis" unicode="&#xef;" horiz-adv-x="475" 
d="M23 1264v176h124v-176h-124zM168 0v1030h139v-1030h-139zM332 1264v176h127v-176h-127z" />
    <glyph glyph-name="eth" unicode="&#xf0;" horiz-adv-x="1204" 
d="M100 475c0 131.333 43.334 244.335 130.001 339.002s206.667 142 360 142c58.667 0 112.667 -9 162 -27c48 -17.333 82.667 -36.333 104 -57l29 -26h4c-46 131.333 -130.667 239.666 -254 324.999l-361 -163l-26 98l276 129c-84 43.333 -181 78 -291 104l41 119
c158.667 -40.667 292.667 -93.334 402 -158.001l268 121l27 -98l-199 -92c206 -160.667 309 -384.667 309 -672c0 -73.333 -9.66699 -142.333 -29 -207c-20.667 -68.667 -50.334 -130.667 -89.001 -186c-40 -57.333 -93.333 -103.333 -160 -138
c-67.333 -35.333 -144 -53 -230 -53c-143.333 0 -258 50 -344 150s-129 216.667 -129 350zM244.001 473.002c0 -100.667 30.001 -187.999 90.001 -261.999s141.333 -111 244 -111c117.333 0 206.666 44 267.999 132c61.333 88.667 92 188.667 92 300
c0 89.333 -30.667 162.666 -92 219.999s-142 86 -242 86c-116 0 -205 -36 -267 -108s-93 -157.667 -93 -257z" />
    <glyph glyph-name="ntilde" unicode="&#xf1;" horiz-adv-x="1214" 
d="M168 0v1030h137v-153l-4 -82h4c24.667 63.333 72.667 122.333 144 177c71.333 55.333 160.666 83 267.999 83c122.667 0 210.667 -33.667 264 -101s80 -167 80 -299v-655h-139v618c0 97.333 -14.667 172.666 -44 225.999s-89.333 80 -180 80c-86.667 0 -165 -27 -235 -81
c-69.333 -54 -115.666 -124 -138.999 -210c-11.333 -39.333 -17 -85.666 -17 -138.999v-494h-139zM317 1202c0 160 62.999 240 188.999 240c40 0 74.333 -12.333 103 -37c34 -29.333 61 -54 81 -74c24.667 -24.667 49.334 -37 74.001 -37c54.667 0 82 47.333 82 142h110
c0 -160 -62.667 -240 -188 -240c-40 0 -74.333 12.333 -103 37c-32.667 28 -59.667 52.333 -81 73c-24 23.333 -48.667 35 -74 35c-53.333 0 -80 -46.333 -80 -139h-113z" />
    <glyph glyph-name="ograve" unicode="&#xf2;" horiz-adv-x="1273" 
d="M92 520c0 152 53 279 159 381c106.667 102.667 235.334 154 386.001 154s279.334 -51.333 386.001 -154c106 -102 159 -229 159 -381c0 -154.667 -53 -284 -159 -388c-106.667 -104.667 -235.334 -157 -386.001 -157s-279.334 52.333 -386.001 157
c-106 104 -159 233.333 -159 388zM236 520c0 -119.333 38.667 -219 116 -299c78 -80.667 173 -121 285 -121s207 40.333 285 121c77.333 80 116 179.667 116 299c0 116.667 -38.667 213.667 -116 291c-78 78 -173 117 -285 117s-207 -39 -285 -117
c-77.333 -77.333 -116 -174.333 -116 -291zM399 1440h162l141 -244h-127z" />
    <glyph glyph-name="oacute" unicode="&#xf3;" horiz-adv-x="1273" 
d="M92 520c0 152 53 279 159 381c106.667 102.667 235.334 154 386.001 154s279.334 -51.333 386.001 -154c106 -102 159 -229 159 -381c0 -154.667 -53 -284 -159 -388c-106.667 -104.667 -235.334 -157 -386.001 -157s-279.334 52.333 -386.001 157
c-106 104 -159 233.333 -159 388zM236 520c0 -119.333 38.667 -219 116 -299c78 -80.667 173 -121 285 -121s207 40.333 285 121c77.333 80 116 179.667 116 299c0 116.667 -38.667 213.667 -116 291c-78 78 -173 117 -285 117s-207 -39 -285 -117
c-77.333 -77.333 -116 -174.333 -116 -291zM571 1196l142 244h161l-176 -244h-127z" />
    <glyph glyph-name="ocircumflex" unicode="&#xf4;" horiz-adv-x="1273" 
d="M92 520c0 152 53 279 159 381c106.667 102.667 235.334 154 386.001 154s279.334 -51.333 386.001 -154c106 -102 159 -229 159 -381c0 -154.667 -53 -284 -159 -388c-106.667 -104.667 -235.334 -157 -386.001 -157s-279.334 52.333 -386.001 157
c-106 104 -159 233.333 -159 388zM236 520c0 -119.333 38.667 -219 116 -299c78 -80.667 173 -121 285 -121s207 40.333 285 121c77.333 80 116 179.667 116 299c0 116.667 -38.667 213.667 -116 291c-78 78 -173 117 -285 117s-207 -39 -285 -117
c-77.333 -77.333 -116 -174.333 -116 -291zM389 1196l170 244h154l172 -244h-135l-111 166h-4l-111 -166h-135z" />
    <glyph glyph-name="otilde" unicode="&#xf5;" horiz-adv-x="1273" 
d="M92 520c0 152 53 279 159 381c106.667 102.667 235.334 154 386.001 154s279.334 -51.333 386.001 -154c106 -102 159 -229 159 -381c0 -154.667 -53 -284 -159 -388c-106.667 -104.667 -235.334 -157 -386.001 -157s-279.334 52.333 -386.001 157
c-106 104 -159 233.333 -159 388zM236 520c0 -119.333 38.667 -219 116 -299c78 -80.667 173 -121 285 -121s207 40.333 285 121c77.333 80 116 179.667 116 299c0 116.667 -38.667 213.667 -116 291c-78 78 -173 117 -285 117s-207 -39 -285 -117
c-77.333 -77.333 -116 -174.333 -116 -291zM317 1202c0 160 62.999 240 188.999 240c40 0 74.333 -12.333 103 -37c34 -29.333 61 -54 81 -74c24.667 -24.667 49.334 -37 74.001 -37c54.667 0 82 47.333 82 142h110c0 -160 -62.667 -240 -188 -240
c-40 0 -74.333 12.333 -103 37c-32.667 28 -59.667 52.333 -81 73c-24 23.333 -48.667 35 -74 35c-53.333 0 -80 -46.333 -80 -139h-113z" />
    <glyph glyph-name="odieresis" unicode="&#xf6;" horiz-adv-x="1273" 
d="M92 520c0 152 53 279 159 381c106.667 102.667 235.334 154 386.001 154s279.334 -51.333 386.001 -154c106 -102 159 -229 159 -381c0 -154.667 -53 -284 -159 -388c-106.667 -104.667 -235.334 -157 -386.001 -157s-279.334 52.333 -386.001 157
c-106 104 -159 233.333 -159 388zM236 520c0 -119.333 38.667 -219 116 -299c78 -80.667 173 -121 285 -121s207 40.333 285 121c77.333 80 116 179.667 116 299c0 116.667 -38.667 213.667 -116 291c-78 78 -173 117 -285 117s-207 -39 -285 -117
c-77.333 -77.333 -116 -174.333 -116 -291zM420 1264v176h125v-176h-125zM729 1264v176h127v-176h-127z" />
    <glyph glyph-name="divide" unicode="&#xf7;" horiz-adv-x="1323" 
d="M160 522v119h1003v-119h-1003zM584 125v151h153v-151h-153zM584 887v151h153v-151h-153z" />
    <glyph glyph-name="oslash" unicode="&#xf8;" horiz-adv-x="1277" 
d="M94 520c0 152 53 279 159 381c106.667 102.667 235.334 154 386.001 154c99.333 0 192.333 -24.667 279 -74l79 111l84 -62l-77 -110c120 -104.667 180 -238 180 -400c0 -154.667 -53 -284 -159 -388c-106.667 -104.667 -235.334 -157 -386.001 -157
c-92.667 0 -180.667 22 -264 66l-78 -109l-84 62l76 104c-130 108 -195 248.667 -195 422zM238 520c0 -125.333 43 -229 129 -311l475 663c-63.333 37.333 -131 56 -203 56c-112 0 -207 -39 -285 -117c-77.333 -77.333 -116 -174.333 -116 -291zM451 147
c56.667 -31.333 119.333 -46.999 188 -46.999c112 0 207 40.333 285 121c77.333 80 116 179.667 116 299c0 115.333 -38.667 211.666 -116 288.999z" />
    <glyph glyph-name="ugrave" unicode="&#xf9;" horiz-adv-x="1204" 
d="M154 375v655h139v-618c0 -97.333 14.667 -172.666 44 -225.999s89 -80 179 -80c114 0 206 42.333 276 127s105 186 105 304v493h139v-1030h-135v154l4 82h-4c-26.667 -64 -74.667 -123.333 -144 -178c-70.667 -55.333 -157 -83 -259 -83c-120 0 -207.333 33 -262 99
c-54.667 65.333 -82 165.666 -82 300.999zM358 1440h162l142 -244h-127z" />
    <glyph glyph-name="uacute" unicode="&#xfa;" horiz-adv-x="1204" 
d="M154 375v655h139v-618c0 -97.333 14.667 -172.666 44 -225.999s89 -80 179 -80c114 0 206 42.333 276 127s105 186 105 304v493h139v-1030h-135v154l4 82h-4c-26.667 -64 -74.667 -123.333 -144 -178c-70.667 -55.333 -157 -83 -259 -83c-120 0 -207.333 33 -262 99
c-54.667 65.333 -82 165.666 -82 300.999zM528 1196l142 244h161l-176 -244h-127z" />
    <glyph glyph-name="ucircumflex" unicode="&#xfb;" horiz-adv-x="1204" 
d="M154 375v655h139v-618c0 -97.333 14.667 -172.666 44 -225.999s89 -80 179 -80c114 0 206 42.333 276 127s105 186 105 304v493h139v-1030h-135v154l4 82h-4c-26.667 -64 -74.667 -123.333 -144 -178c-70.667 -55.333 -157 -83 -259 -83c-120 0 -207.333 33 -262 99
c-54.667 65.333 -82 165.666 -82 300.999zM348 1196l170 244h154l172 -244h-135l-111 166h-4l-111 -166h-135z" />
    <glyph glyph-name="udieresis" unicode="&#xfc;" horiz-adv-x="1204" 
d="M154 375v655h139v-618c0 -97.333 14.667 -172.666 44 -225.999s89 -80 179 -80c114 0 206 42.333 276 127s105 186 105 304v493h139v-1030h-135v154l4 82h-4c-26.667 -64 -74.667 -123.333 -144 -178c-70.667 -55.333 -157 -83 -259 -83c-120 0 -207.333 33 -262 99
c-54.667 65.333 -82 165.666 -82 300.999zM379 1264v176h125v-176h-125zM688 1264v176h127v-176h-127z" />
    <glyph glyph-name="yacute" unicode="&#xfd;" horiz-adv-x="1021" 
d="M14 -369l54 111c38.667 -31.333 79.334 -47 122.001 -47c81.333 0 146.333 56 195 168l64 145l-431 1022h154l303 -751l37 -109h4c12 44 23.667 80.333 35 109l297 751h151l-507 -1245c-27.333 -67.333 -67 -120 -119 -158s-111.333 -57 -178 -57c-32 0 -63 5 -93 15
c-28.667 9.33301 -50.334 19.333 -65.001 30zM446 1196l142 244h162l-177 -244h-127z" />
    <glyph glyph-name="thorn" unicode="&#xfe;" horiz-adv-x="1206" 
d="M168 -410l-0.000976562 1850h139v-498l-2 -84h4l13 19l26 38c11.333 16 26 31.667 44 47c19.333 16.667 41 31.667 65 45c19.333 10.667 48.333 21.667 87 33c35.333 10 72.333 15 111 15c138 0 247.667 -50 329 -150c81.333 -100.667 122 -230.334 122 -389.001
c0 -160.667 -43 -291 -129 -391s-196.667 -150 -332 -150c-46 0 -89.667 7 -131 21s-73.666 30.333 -96.999 49c-24 19.333 -45 38.333 -63 57c-16.667 18 -29 34.667 -37 50l-10 20h-4c2.66699 -22 4 -52 4 -90v-492h-139zM302.999 514.001
c0 -115.333 29.666 -213.333 88.999 -294c58.667 -80 139 -120 241 -120c94 0 172.333 38 235 114c63.333 76.667 95 177.334 95 302.001c0 122 -30.333 221.333 -91 298c-60 76 -137.667 114 -233 114c-97.333 0 -177.666 -34.333 -240.999 -103s-95 -172.334 -95 -311.001
z" />
    <glyph glyph-name="ydieresis" unicode="&#xff;" horiz-adv-x="1021" 
d="M14 -369l54 111c38.667 -31.333 79.334 -47 122.001 -47c81.333 0 146.333 56 195 168l64 145l-431 1022h154l303 -751l37 -109h4c12 44 23.667 80.333 35 109l297 751h151l-507 -1245c-27.333 -67.333 -67 -120 -119 -158s-111.333 -57 -178 -57c-32 0 -63 5 -93 15
c-28.667 9.33301 -50.334 19.333 -65.001 30zM297 1264v176h125v-176h-125zM606 1264v176h127v-176h-127z" />
    <glyph glyph-name="circumflex" unicode="&#x2c6;" horiz-adv-x="1032" 
d="M268 1540l170 244h154l172 -244h-135l-111 166h-4l-111 -166h-135z" />
    <glyph glyph-name="tilde" unicode="&#x2dc;" horiz-adv-x="1032" 
d="M197 1546c0 160 62.667 240 188 240c40 0 74.333 -12.333 103 -37c34 -29.333 61 -54 81 -74c24.667 -24.667 49.334 -37 74.001 -37c54.667 0 82 47.333 82 142h111c0 -160 -63 -240 -189 -240c-40 0 -74.333 12.333 -103 37c-32.667 28 -59.667 52.333 -81 73
c-24.667 24 -49.334 36 -74.001 36c-53.333 0 -80 -46.667 -80 -140h-112z" />
    <glyph glyph-name="uni2000" unicode="&#x2000;" horiz-adv-x="904" 
 />
    <glyph glyph-name="uni2001" unicode="&#x2001;" horiz-adv-x="1808" 
 />
    <glyph glyph-name="uni2002" unicode="&#x2002;" horiz-adv-x="904" 
 />
    <glyph glyph-name="uni2003" unicode="&#x2003;" horiz-adv-x="1808" 
 />
    <glyph glyph-name="uni2004" unicode="&#x2004;" horiz-adv-x="602" 
 />
    <glyph glyph-name="uni2005" unicode="&#x2005;" horiz-adv-x="452" 
 />
    <glyph glyph-name="uni2006" unicode="&#x2006;" horiz-adv-x="301" 
 />
    <glyph glyph-name="uni2007" unicode="&#x2007;" horiz-adv-x="301" 
 />
    <glyph glyph-name="uni2008" unicode="&#x2008;" horiz-adv-x="226" 
 />
    <glyph glyph-name="uni2009" unicode="&#x2009;" horiz-adv-x="361" 
 />
    <glyph glyph-name="uni200A" unicode="&#x200a;" horiz-adv-x="100" 
 />
    <glyph glyph-name="uni2010" unicode="&#x2010;" horiz-adv-x="1007" 
d="M213 518v127h582v-127h-582z" />
    <glyph glyph-name="uni2011" unicode="&#x2011;" horiz-adv-x="1007" 
d="M213 518v127h582v-127h-582z" />
    <glyph glyph-name="figuredash" unicode="&#x2012;" horiz-adv-x="1007" 
d="M213 518v127h582v-127h-582z" />
    <glyph glyph-name="endash" unicode="&#x2013;" horiz-adv-x="1449" 
d="M213 522v119h1024v-119h-1024z" />
    <glyph glyph-name="emdash" unicode="&#x2014;" horiz-adv-x="1859" 
d="M213 522v119h1434v-119h-1434z" />
    <glyph glyph-name="quoteleft" unicode="&#x2018;" horiz-adv-x="440" 
d="M115 1106l116 352h111l-80 -352h-147z" />
    <glyph glyph-name="quoteright" unicode="&#x2019;" horiz-adv-x="428" 
d="M117 1108l80 352h147l-115 -352h-112z" />
    <glyph glyph-name="quotesinglbase" unicode="&#x201a;" horiz-adv-x="487" 
d="M104 -184l80 352h146l-115 -352h-111z" />
    <glyph glyph-name="quotedblleft" unicode="&#x201c;" horiz-adv-x="686" 
d="M115 1106l116 352h111l-80 -352h-147zM360 1106l115 352h113l-80 -352h-148z" />
    <glyph glyph-name="quotedblright" unicode="&#x201d;" horiz-adv-x="673" 
d="M117 1108l80 352h147l-115 -352h-112zM362 1108l80 352h148l-115 -352h-113z" />
    <glyph glyph-name="quotedblbase" unicode="&#x201e;" horiz-adv-x="729" 
d="M104 -184l80 352h146l-115 -352h-111zM346 -184l80 352h145l-114 -352h-111z" />
    <glyph glyph-name="bullet" unicode="&#x2022;" horiz-adv-x="821" 
d="M119 596c0 80.667 28.667 149.667 86 207s126.333 86 207 86c79.333 0 147.666 -28.667 204.999 -86c56.667 -56.667 85 -125.667 85 -207s-28.333 -150.333 -85 -207c-57.333 -57.333 -125.666 -86 -204.999 -86c-80.667 0 -149.667 28.667 -207 86s-86 126.333 -86 207
z" />
    <glyph glyph-name="ellipsis" unicode="&#x2026;" horiz-adv-x="1464" 
d="M172 0v164h158v-164h-158zM653 0v164h158v-164h-158zM1135 0v164h157v-164h-157z" />
    <glyph glyph-name="uni202F" unicode="&#x202f;" horiz-adv-x="361" 
 />
    <glyph glyph-name="guilsinglleft" unicode="&#x2039;" horiz-adv-x="702" 
d="M102 578l336 421h150l-336 -421l336 -420h-150z" />
    <glyph glyph-name="guilsinglright" unicode="&#x203a;" horiz-adv-x="704" 
d="M115 158l336 420l-336 421h151l336 -421l-336 -420h-151z" />
    <glyph glyph-name="uni205F" unicode="&#x205f;" horiz-adv-x="452" 
 />
    <glyph glyph-name="trademark" unicode="&#x2122;" horiz-adv-x="1908" 
d="M55 1333v107h758v-107h-321v-790h-117v790h-320zM887 543l70.999 897h107l235 -514l29 -84h4c6.66699 28.667 16.334 56.667 29.001 84l235 514h107l70 -897h-113l-51 608l2 59h-4l-230 -499h-94l-229 499h-4l2 -59l-52 -608h-114z" />
    <glyph glyph-name="uniE000" unicode="&#xe000;" horiz-adv-x="1034" 
d="M0 0v1034h1034v-1034h-1034z" />
  </font>
</defs>
</svg>
