<?xml version="1.0" standalone="no"?>
<!DOCTYPE svg PUBLIC "-//W3C//DTD SVG 1.1//EN" "http://www.w3.org/Graphics/SVG/1.1/DTD/svg11.dtd" >
<svg>
<metadata>
Created by FontForge 20090914 at Mon Dec  2 09:30:46 2019
 By www-data
Copyright (c) 2008 by Jos Buivenga/exljbris. All rights reserved.
</metadata>
<defs>
<font id="Museo-300" horiz-adv-x="1241" >
  <font-face 
    font-family="Museo"
    font-weight="300"
    font-stretch="normal"
    units-per-em="2048"
    panose-1="2 0 0 0 0 0 0 0 0 0"
    ascent="1536"
    descent="-512"
    x-height="1030"
    cap-height="1440"
    bbox="-108.998 -485 2236 1808"
    underline-thickness="102"
    underline-position="-102"
    unicode-range="U+0020-U+FB04"
  />
<missing-glyph horiz-adv-x="1044" 
d="M10 0v1434h1024v-1434h-1024zM522 809l348 522h-696zM584 717l348 -522v1044zM113 195l348 522l-348 522v-1044zM174 102h696l-348 523z" />
    <glyph glyph-name="uniFB00" unicode="ff" horiz-adv-x="1228" 
d="M180 0l0.00488281 913.006h-129v117h129v37c0 79.333 12.667 146.666 38 201.999s58.166 94.833 98.499 118.5s77.833 40 112.5 49s70 13.5 106 13.5l63 -4v-125c-12 2.66699 -28.333 4 -49 4c-24.667 0 -48 -3 -70 -9s-46.167 -17.333 -72.5 -34
s-47.5 -43.334 -63.5 -80.001s-24 -82.334 -24 -137.001v-35h465v37c0 79.333 12.667 146.666 38 201.999s58.166 94.833 98.499 118.5s77.833 40 112.5 49s70 13.5 106 13.5l63 -4v-125c-12 2.66699 -28.333 4 -49 4c-24.667 0 -47.834 -3 -69.501 -9
s-45.834 -17.333 -72.501 -34s-47.834 -43.334 -63.501 -80.001s-23.5 -82.334 -23.5 -137.001v-35h262v-117h-262v-913h-140v913h-465v-913h-139z" />
    <glyph glyph-name="uniFB01" unicode="fi" horiz-adv-x="1118" 
d="M180 0l0.000976562 913.002h-129v117h129v37c0 79.333 12.667 146.666 38 201.999s58.166 94.833 98.499 118.5s77.833 40 112.5 49s70 13.5 106 13.5l63 -4v-125c-13.333 2.66699 -30.333 4 -51 4c-24.667 0 -48 -3 -70 -9s-45.833 -16.833 -71.5 -32.5
s-46.5 -42.334 -62.5 -80.001s-24 -83.167 -24 -136.5v-37h488c44 0 75.833 -9.83301 95.5 -29.5s29.5 -51.5 29.5 -95.5v-739c0 -30 15 -45 45 -45h86v-121h-145c-44 -0 -75.833 9.83301 -95.5 29.5s-29.5 51.5 -29.5 95.5v743c0 30 -15 45 -45 45h-429v-913h-139z
M788.001 1264v176h136v-176h-136z" />
    <glyph glyph-name="uniFB02" unicode="fl" horiz-adv-x="1105" 
d="M535 1440h260.001c44 0 75.833 -10 95.5 -30s29.5 -51.667 29.5 -95v-1149c0 -30 15 -45 45 -45h86v-121h-146c-44 -0 -75.833 9.83301 -95.5 29.5s-29.5 51.5 -29.5 95.5v1149c0 30 -15 45 -45 45h-186c-152.667 0 -229.334 -84 -230.001 -252v-37h263v-117h-263v-913
h-139v913h-129v117h129v37c0 64 8.83301 120.333 26.5 169s39.167 85.167 64.5 109.5s55.5 44.5 90.5 60.5s65.5 25.667 91.5 29s53.333 5 82 5z" />
    <glyph glyph-name="uniFB03" unicode="ffi" horiz-adv-x="1722" 
d="M180 0l0.00195312 913.006h-129v117h129v37c0 79.333 12.667 146.666 38 201.999s58.166 94.833 98.499 118.5s77.833 40 112.5 49s70 13.5 106 13.5l63 -4v-125c-13.333 2.66699 -29.666 4 -48.999 4c-24.667 0 -48.334 -3 -71.001 -9s-46.834 -17.333 -72.501 -34
s-46.5 -43.334 -62.5 -80.001s-24 -82.334 -24 -137.001v-35h465v37c0 79.333 12.667 146.666 38 201.999s58.166 94.833 98.499 118.5s77.833 40 112.5 49s70 13.5 106 13.5l63 -4v-125c-13.333 2.66699 -29.666 4 -48.999 4c-24.667 0 -48.167 -3 -70.5 -9
s-46.5 -17.333 -72.5 -34s-46.833 -43.334 -62.5 -80.001s-23.5 -82.334 -23.5 -137.001v-35h487c44 0 75.833 -9.83301 95.5 -29.5s29.5 -51.5 29.5 -95.5v-739c0 -30 15 -45 45 -45h86v-121h-145c-44 -0 -75.833 9.83301 -95.5 29.5s-29.5 51.5 -29.5 95.5v743
c0 30 -15 45 -45 45h-428v-913h-140v913h-465v-913h-139zM1393 1264.01v176h135v-176h-135z" />
    <glyph glyph-name="uniFB04" unicode="ffl" horiz-adv-x="1708" 
d="M1139 1440h260.001c44 0 75.833 -10 95.5 -30s29.5 -51.667 29.5 -95v-1149c0 -30 15 -45 45 -45h86v-121h-146c-44 -0 -75.833 9.83301 -95.5 29.5s-29.5 51.5 -29.5 95.5v1149c0 30 -15 45 -45 45h-186c-152.667 0 -229 -84 -229 -252v-37h262v-117h-262v-913h-140v913
h-465v-913h-139v913h-129v117h129v43c0 78 12 144 36 198s56.167 92.833 96.5 116.5s77.5 40 111.5 49s69.333 13.5 106 13.5l68 -4v-125c-15.333 2.66699 -33 4 -53 4c-24.667 0 -48.334 -3 -71.001 -9s-46.5 -17.333 -71.5 -34s-45.167 -43 -60.5 -79s-23 -80 -23 -132
v-41h465v37c0 64 9 120.333 27 169s39.5 85.167 64.5 109.5s55 44.5 90 60.5s65.5 25.667 91.5 29s53.333 5 82 5z" />
    <glyph glyph-name="f_j" unicode="fj" horiz-adv-x="1163" 
d="M180 0l0.000976562 913.005h-129v117h129v37c0 79.333 12.667 146.666 38 201.999s58.166 94.833 98.499 118.5s77.833 40 112.5 49s70 13.5 106 13.5l63 -4v-125c-13.333 2.66699 -29.666 4 -48.999 4c-24.667 0 -48.334 -3 -71.001 -9s-46.834 -17.333 -72.501 -34
s-46.5 -43.334 -62.5 -80.001s-24 -82.334 -24 -137.001v-35h535c44 0 75.833 -9.83301 95.5 -29.5s29.5 -51.5 29.5 -95.5v-944c0 -80.667 -12.667 -148.334 -38 -203.001s-58.5 -93.834 -99.5 -117.501s-78.833 -40 -113.5 -49s-70.334 -13.5 -107.001 -13.5l-60 6v121
c12 -1.33301 27 -2 45 -2c24.667 0 48.334 3 71.001 9s47.334 17.333 74.001 34s48.167 44 64.5 82s24.5 84.333 24.5 139v901c0 30 -15 45 -45 45h-476v-913h-139zM838.001 1264v176h135v-176h-135z" />
    <glyph glyph-name=".notdef" horiz-adv-x="1044" 
d="M10 0v1434h1024v-1434h-1024zM522 809l348 522h-696zM584 717l348 -522v1044zM113 195l348 522l-348 522v-1044zM174 102h696l-348 523z" />
    <glyph glyph-name="space" unicode=" " horiz-adv-x="557" 
 />
    <glyph glyph-name="exclam" unicode="!" horiz-adv-x="608" 
d="M238 377l-7 1063h144l-6 -1063h-131zM227 0v158h158v-158h-158z" />
    <glyph glyph-name="quotedbl" unicode="&#x22;" horiz-adv-x="638" 
d="M383 1114v346h121v-346h-121zM135 1114v346h121v-346h-121z" />
    <glyph glyph-name="numbersign" unicode="#" horiz-adv-x="1460" 
d="M305 0l70 399h-291l20 115h289l72 401h-289l19 115h290l72 410h125l-72 -410h355l71 410h125l-71 -410h286l-20 -115h-287l-70 -401h285l-18 -115h-287l-70 -399h-125l70 399h-354l-70 -399h-125zM520 514h352l72 401h-354z" />
    <glyph glyph-name="dollar" unicode="$" horiz-adv-x="1089" 
d="M94 246l106.998 86c2.66699 -5.33301 7.33398 -13.166 14.001 -23.499s21.334 -28.5 44.001 -54.5s46.667 -48.5 72 -67.5s59.166 -36.667 101.499 -53s86.5 -24.5 132.5 -24.5c84.667 0 153.334 24.5 206.001 73.5s79 109.833 79 182.5c0 48 -13 90.667 -39 128
s-59.833 68.666 -101.5 93.999s-87.834 49.333 -138.501 72l-152 74c-51.333 26 -97.833 54.667 -139.5 86s-75.5 71.333 -101.5 120s-39 104.334 -39 167.001c0 90 33.5 167.833 100.5 233.5s155.833 105.167 266.5 118.5v195h117v-191c86 -8 163.333 -31.833 232 -71.5
s103 -97.5 103 -173.5v-103h-135v68c0 42 -23.5 77.333 -70.5 106s-103.833 43 -170.5 43c-90 0 -161.667 -21.5 -215 -64.5s-80 -95.833 -80 -158.5c0 -53.333 17.333 -100.166 52 -140.499s78.667 -72.333 132 -96s110.333 -50.667 171 -81s117.667 -60.833 171 -91.5
s97.333 -74.334 132 -131.001s52 -122.334 52 -197.001c0 -100 -34.333 -187.5 -103 -262.5s-159 -117.833 -271 -128.5v-191h-117v191c-53.333 5.33301 -103.833 18.166 -151.5 38.499s-86.5 42.833 -116.5 67.5s-56.667 49.334 -80 74.001s-39.666 45 -48.999 61z" />
    <glyph glyph-name="percent" unicode="%" horiz-adv-x="1521" 
d="M414 895c-79.333 0 -146.999 27.667 -202.999 83s-84 122.666 -84 201.999c0 78 28 144.833 84 200.5s123.5 83.5 202.5 83.5s146.833 -28 203.5 -84s85 -122.667 85 -200c0 -79.333 -27.833 -146.666 -83.5 -201.999s-123.834 -83 -204.501 -83zM139.001 0l1098 1440
h145l-1095 -1440h-148zM413.501 1010c46.333 0 86 16.333 119 49s49.5 73 49.5 121c0 46.667 -16.5 86.667 -49.5 120s-72.667 50 -119 50s-85.5 -16.833 -117.5 -50.5s-48 -73.5 -48 -119.5c0 -48 16 -88.333 48 -121s71.167 -49 117.5 -49zM819.001 258
c0 79.333 28 147 84 203s123.667 84 203 84s147.333 -28 204 -84s85 -123.667 85 -203c0 -78 -28.333 -144.667 -85 -200s-124.667 -83 -204 -83s-147 27.667 -203 83s-84 122 -84 200zM942.001 260c0 -48 15.667 -88.333 47 -121s70.333 -49 117 -49
s86.334 16.333 119.001 49s49 73 49 121c0 46.667 -16.333 86.667 -49 120s-72.334 50 -119.001 50s-85.667 -16.667 -117 -50s-47 -73.333 -47 -120z" />
    <glyph glyph-name="ampersand" unicode="&#x26;" horiz-adv-x="1277" 
d="M94 401c0 84.667 22.8311 162.501 68.498 233.501s109.5 118.167 191.5 141.5v4c-5.33301 1.33301 -12.5 4.16602 -21.5 8.49902s-24.667 14.666 -47 30.999s-42.333 35.333 -60 57s-33.667 52.334 -48 92.001s-21.5 83.5 -21.5 131.5c0 108 38.5 195.667 115.5 263
s180.5 101 310.5 101c23.333 0 48.833 -1.66699 76.5 -5s49.834 -7 66.501 -11l25 -6l-41 -117c-45.333 9.33301 -85 14 -119 14c-83.333 0 -152 -22.833 -206 -68.5s-81 -105.167 -81 -178.5c0 -28.667 3.83301 -56 11.5 -82s21.334 -53.667 41.001 -83
s51.667 -52.666 96 -69.999s97.833 -26 160.5 -26h299v199h142v-199h190v-126h-190v-211c0 -168 -42 -296.5 -126 -385.5s-199.667 -133.5 -347 -133.5c-142 0 -258.5 40.667 -349.5 122s-136.5 182.666 -136.5 303.999zM239.998 406.001
c0 -84.667 30.666 -155.333 91.999 -212s143.833 -85 247.5 -85s184.834 31.667 243.501 95s88 161.333 88 294v207h-295c-122.667 0 -216 -26.667 -280 -80s-96 -126.333 -96 -219z" />
    <glyph glyph-name="quotesingle" unicode="'" horiz-adv-x="391" 
d="M135 1114v346h121v-346h-121z" />
    <glyph glyph-name="parenleft" unicode="(" horiz-adv-x="632" 
d="M174 680c0 307.333 73.667 578.999 221 814.999h131c-148.667 -251.333 -223 -519.666 -223 -804.999c0 -315.333 78.667 -610.333 236 -885h-129c-157.333 257.333 -236 549 -236 875z" />
    <glyph glyph-name="parenright" unicode=")" horiz-adv-x="632" 
d="M94 -195c157.333 274.667 236 569.668 236 885.001c0 285.333 -74.667 553.666 -224 804.999h132c147.333 -240 221 -511.667 221 -815c0 -326 -78.667 -617.667 -236 -875h-129z" />
    <glyph glyph-name="asterisk" unicode="*" horiz-adv-x="976" 
d="M311 690l-108 78l192 246v4l-301 86l41 129l295 -109l-12 316h139l-14 -316l299 107l41 -125l-303 -88v-4l192 -246l-106 -80l-177 260h-4z" />
    <glyph glyph-name="plus" unicode="+" 
d="M86 522v119h473v522h125v-522h471v-119h-471v-522h-125v522h-473z" />
    <glyph glyph-name="comma" unicode="," horiz-adv-x="440" 
d="M164 168h149l-149 -367h-117z" />
    <glyph glyph-name="hyphen" unicode="-" horiz-adv-x="884" 
d="M152 518v127h581v-127h-581z" />
    <glyph glyph-name="period" unicode="." horiz-adv-x="440" 
d="M141 0v164h158v-164h-158z" />
    <glyph glyph-name="slash" unicode="/" horiz-adv-x="665" 
d="M6 -86l520 1606h129l-518 -1606h-131z" />
    <glyph glyph-name="zero" unicode="0" horiz-adv-x="1232" 
d="M616 -25c-330.667 0 -495.667 248.667 -495 746c0 495.333 165 743 495 743c120 0 218.333 -34 295 -102s129.667 -155.333 159 -262s44 -233 44 -379c0 -497.333 -166 -746 -498 -746zM616.5 109c233.667 0 350.5 204 350.5 612c0 406.667 -116.833 610 -350.5 610
s-350.5 -203.333 -350.5 -610c0 -408 116.833 -612 350.5 -612z" />
    <glyph glyph-name="one" unicode="1" horiz-adv-x="974" 
d="M131 0v127.001h322v1057l2 80h-4c-9.33301 -20.667 -33.333 -49.334 -72 -86.001l-154 -154l-90 92l326 324h135v-1313h315v-127h-780z" />
    <glyph glyph-name="two" unicode="2" horiz-adv-x="1155" 
d="M86 141c0 98 26.332 183.668 78.999 257.001s116 132 190 176l224 129c74.667 41.333 138.167 91.5 190.5 150.5s78.5 127.5 78.5 205.5s-27 142.5 -81 193.5s-125.333 76.5 -214 76.5c-70.667 0 -131 -15.667 -181 -47s-75 -67.333 -75 -108v-68h-135v106
c0 44 13.333 82.667 40 116s60.834 59.666 102.501 78.999s84.334 33.666 128.001 42.999s85.167 14 124.5 14c134 0 240.5 -38.5 319.5 -115.5s118.5 -172.833 118.5 -287.5c0 -92.667 -26.167 -174.5 -78.5 -245.5s-115.833 -129.167 -190.5 -174.5l-223 -130
c-74.667 -41.333 -138.334 -90.833 -191.001 -148.5s-79 -122.5 -79 -194.5c0 -27.333 16 -41 48 -41h602c30 0 45 15 45 45v96h133v-143c0 -44 -10 -75.833 -30 -95.5s-51.667 -29.5 -95 -29.5h-721c-48 0 -81.5 10.833 -100.5 32.5s-28.5 57.834 -28.5 108.501z" />
    <glyph glyph-name="three" unicode="3" horiz-adv-x="1081" 
d="M53 176l86.0049 107.002c4 -4 9.83301 -10.167 17.5 -18.5s24.167 -22.333 49.5 -42s51.666 -37.167 78.999 -52.5s62.166 -29 104.499 -41s84.5 -18 126.5 -18c87.333 0 163.5 29.333 228.5 88s97.5 133 97.5 223c0 92.667 -34.167 166.334 -102.5 221.001
s-150.833 82 -247.5 82h-101l-33 84l355 426c23.333 31.333 47.666 58 72.999 80v4c-27.333 -4 -66 -6 -116 -6h-375c-30 0 -45 -15 -45 -45v-97h-133v144c0 45.333 9.16699 77.5 27.5 96.5s49.5 28.5 93.5 28.5h731v-94l-424 -498
c49.333 -2.66699 98.166 -11.834 146.499 -27.501s95.666 -39.334 141.999 -71.001s83.833 -75.334 112.5 -131.001s43 -120.5 43 -194.5c0 -122.667 -45.333 -228.167 -136 -316.5s-203.667 -132.5 -339 -132.5c-53.333 0 -105.5 6.83301 -156.5 20.5s-94 30.5 -129 50.5
s-66.5 39.833 -94.5 59.5s-48 36.5 -60 50.5z" />
    <glyph glyph-name="four" unicode="4" horiz-adv-x="1150" 
d="M31 397v95l700 948h154v-916h229v-127h-229v-397h-144v397h-710zM743 524l-0.000976562 588l7 139h-5c-23.333 -39.333 -47.666 -76 -72.999 -110l-400 -529l-75 -90v-4c38 4 77.333 6 118 6h428z" />
    <glyph glyph-name="five" unicode="5" horiz-adv-x="1165" 
d="M111 180l89.998 101c2.66699 -4 7 -10.167 13 -18.5s19.333 -22 40 -41s42.5 -36.167 65.5 -51.5s54 -29 93 -41s79.833 -18 122.5 -18c102.667 0 188 32 256 96s102 143.667 102 239c0 98 -35.833 178.833 -107.5 242.5s-160.167 95.5 -265.5 95.5
c-48 0 -95.167 -6.5 -141.5 -19.5s-80.5 -26.167 -102.5 -39.5l-32 -20l-74 30l61 580c4 45.333 15.333 77.5 34 96.5s49 28.5 91 28.5h473c44 0 75.5 -10 94.5 -30s28.5 -51.667 28.5 -95v-144h-133v97c0 30 -15 45 -45 45h-364c-26 0 -41 -15 -45 -45l-37 -326l-13 -82h4
c60 35.333 132.667 53 218 53c144.667 0 264.667 -45.333 360 -136s143 -201.667 143 -333c0 -130 -48 -240.667 -144 -332s-216.333 -137 -361 -137c-53.333 0 -104.666 7.16699 -153.999 21.5s-89.666 31.5 -120.999 51.5s-59 39.833 -83 59.5s-40.667 37.167 -50 52.5z
" />
    <glyph glyph-name="six" unicode="6" horiz-adv-x="1146" 
d="M608 -25c-154 0 -279.168 61.833 -375.501 185.5s-144.5 281.167 -144.5 472.5c0 75.333 7.5 151.166 22.5 227.499s39.167 151 72.5 224s74 137.5 122 193.5s107.833 101 179.5 135s150.5 51 236.5 51c46.667 0 92.167 -5 136.5 -15s76.5 -20 96.5 -30l31 -14l-53 -125
c-60 34 -129.667 51 -209 51c-95.333 0 -178.833 -29.667 -250.5 -89s-125.667 -132.333 -162 -219s-59.166 -181.334 -68.499 -284.001h4c32.667 54.667 82.5 97.334 149.5 128.001s139.167 46 216.5 46c131.333 0 239 -42.667 323 -128s126 -194.666 126 -327.999
c0 -146 -43 -262.833 -129 -350.5s-194 -131.5 -324 -131.5zM241.999 541c0 -102.667 35.502 -200.333 106.502 -293s156.833 -139 257.5 -139c95.333 0 170.666 32.333 225.999 97s83 147.667 83 249c0 100 -29.667 180.167 -89 240.5s-138 90.5 -236 90.5
c-92.667 0 -173.834 -25.833 -243.501 -77.5s-104.5 -107.5 -104.5 -167.5z" />
    <glyph glyph-name="seven" unicode="7" horiz-adv-x="1048" 
d="M162 0l626.001 1180l80 133v4c-24.667 -2.66699 -60.667 -4 -108 -4h-518c-30 0 -45 -15 -45 -45v-97h-136v144c0 44 9.66699 75.833 29 95.5s50.666 29.5 93.999 29.5h850v-99l-712 -1341h-160z" />
    <glyph glyph-name="eight" unicode="8" horiz-adv-x="1167" 
d="M96 406c0 46.667 9.00293 91.666 27.0029 134.999s39.5 79.333 64.5 108s49.833 54 74.5 76s46 37.667 64 47l26 14v5l-21 11c-8.66699 4.66699 -24.334 15.834 -47.001 33.501s-42.5 37.167 -59.5 58.5s-32.667 49.333 -47 84s-21.5 71 -21.5 109
c0 105.333 38.833 194.5 116.5 267.5s183.5 109.5 317.5 109.5s240.833 -35.5 320.5 -106.5s119.5 -163.167 119.5 -276.5c0 -40.667 -6.5 -80.834 -19.5 -120.501s-29 -73.167 -48 -100.5s-38 -51.5 -57 -72.5s-35.5 -36.5 -49.5 -46.5l-18 -16v-4
c75.333 -38 132.666 -82.667 171.999 -134s59 -116.666 59 -195.999c0 -113.333 -46.833 -211 -140.5 -293s-207.834 -123 -342.501 -123c-134 0 -249.167 39 -345.5 117s-144.5 182.667 -144.5 314zM575.003 824.999c69.333 -26 112.666 -39 129.999 -39
c30 0 67.833 31.5 113.5 94.5s68.5 128.5 68.5 196.5c0 76.667 -27.667 138.167 -83 184.5s-126.666 69.5 -213.999 69.5c-88.667 0 -159.334 -23.167 -212.001 -69.5s-79 -104.5 -79 -174.5c0 -68 22.833 -120.167 68.5 -156.5s114.834 -71.5 207.501 -105.5z
M244.003 411.999c0 -90 33.667 -163.001 101 -219.001s147.666 -84 240.999 -84c88.667 0 166.834 26.833 234.501 80.5s101.5 121.5 101.5 203.5c0 68 -22.667 120.833 -68 158.5s-114.333 75.167 -207 112.5c-90 38 -146 57 -168 57c-36.667 0 -85 -31.667 -145 -95
s-90 -134.666 -90 -213.999z" />
    <glyph glyph-name="nine" unicode="9" horiz-adv-x="1146" 
d="M162 35l53.001 124.997c60 -34 129.667 -51 209 -51c95.333 0 179.166 30 251.499 90s126.666 133.333 162.999 220s58.5 181 66.5 283h-4c-32.667 -54.667 -82.834 -97.667 -150.501 -129s-139.5 -47 -215.5 -47c-131.333 0 -238.666 42.667 -321.999 128
s-125 195 -125 329c0 146 42.667 262.667 128 350s193 131 323 131c154 0 279.167 -61.667 375.5 -185s144.5 -280.666 144.5 -471.999c0 -95.333 -12.667 -190.5 -38 -285.5s-62.166 -184.167 -110.499 -267.5s-114.5 -150.666 -198.5 -201.999s-179.333 -77 -286 -77
c-46.667 0 -92.167 4.83301 -136.5 14.5s-76.5 19.834 -96.5 30.501zM557.001 652.997c92.667 0 173.833 25.999 243.5 77.999s104.5 108 104.5 168c0 102.667 -35.5 200.334 -106.5 293.001s-156.833 139 -257.5 139c-95.333 0 -170.833 -32.333 -226.5 -97
s-83.5 -147.667 -83.5 -249c0 -100 29.833 -180.333 89.5 -241s138.5 -91 236.5 -91z" />
    <glyph glyph-name="colon" unicode=":" horiz-adv-x="579" 
d="M211 866v164h158v-164h-158zM211 0v164h158v-164h-158z" />
    <glyph glyph-name="semicolon" unicode=";" horiz-adv-x="579" 
d="M211 866v164h158v-164h-158zM111 -199l98 367h149l-131 -367h-116z" />
    <glyph glyph-name="less" unicode="&#x3c;" 
d="M141 530v103l926 414v-138l-752 -325v-4l752 -326v-137z" />
    <glyph glyph-name="equal" unicode="=" 
d="M143 700v119h955v-119h-955zM143 344v119h955v-119h-955z" />
    <glyph glyph-name="greater" unicode="&#x3e;" 
d="M158 117v137l751 326v4l-751 325v138l925 -414v-103z" />
    <glyph glyph-name="question" unicode="?" horiz-adv-x="882" 
d="M313 377l-0.00195312 92c0 60 12.333 114.667 37 164s54.334 91 89.001 125l106 99c35.333 32 65.333 68.5 90 109.5s37 84.833 37 131.5c0 66.667 -25.333 122.5 -76 167.5s-115 67.5 -193 67.5c-90 -1.33301 -172.333 -30.666 -247 -87.999l-76 105
c9.33301 8 22.833 18.5 40.5 31.5s55.167 30.333 112.5 52s116.333 32.5 177 32.5c117.333 0 214.833 -34 292.5 -102s116.5 -154.667 116.5 -260c0 -62.667 -12.667 -119.334 -38 -170.001s-56 -92.667 -92 -126l-107 -97c-35.333 -31.333 -65.666 -67.833 -90.999 -109.5
s-38 -87.167 -38 -136.5v-88h-140zM304.998 0v158h158v-158h-158z" />
    <glyph glyph-name="at" unicode="@" horiz-adv-x="1513" 
d="M84 495.5c0 209 71.3311 386.5 213.998 532.5s314.334 219 515.001 219c172 0 298.667 -36.833 380 -110.5s122 -165.834 122 -276.501v-645h145v-115h-551c-116 0 -213.167 38.667 -291.5 116s-117.5 169.833 -117.5 277.5s38.833 200.167 116.5 277.5
s175.167 116 292.5 116h267c-2.66699 68 -33.5 124.833 -92.5 170.5s-145.833 68.5 -260.5 68.5c-166.667 0 -307.667 -61.667 -423 -185s-173 -271.666 -173 -444.999c0 -176 57.667 -324.5 173 -445.5s260 -181.5 434 -181.5v-123
c-211.333 0 -389.166 72.667 -533.499 218s-216.5 322.5 -216.5 531.5zM642.998 495.5c0 -77.667 27 -143.833 81 -198.5s120 -82 198 -82h254v563h-250c-80.667 0 -148 -27.667 -202 -83s-81 -121.833 -81 -199.5z" />
    <glyph glyph-name="A" unicode="A" horiz-adv-x="1345" 
d="M25 0v127h26c38 0 62.667 15 74 45l471 1268h154l471 -1268c10.667 -30 35 -45 73 -45h25v-127h-66c-52 0 -88.833 7.5 -110.5 22.5s-41.5 47.167 -59.5 96.5l-125 340h-571l-127 -340c-19.333 -49.333 -39.5 -81.5 -60.5 -96.5s-56.833 -22.5 -107.5 -22.5h-67zM426 584
h494.001l-191 514l-55 186h-4c-20.667 -79.333 -39.334 -141.333 -56.001 -186z" />
    <glyph glyph-name="B" unicode="B" 
d="M215 125v1188h-133v127h612c114.667 0 208.167 -32.833 280.5 -98.5s108.5 -153.834 108.5 -264.501c0 -148.667 -61.333 -253 -184 -313v-4c74 -20.667 132.833 -63.334 176.5 -128.001s65.5 -141 65.5 -229c0 -124 -40.667 -222.167 -122 -294.5
s-184 -108.5 -308 -108.5h-371c-44 -0 -75.833 9.83301 -95.5 29.5s-29.5 51.5 -29.5 95.5zM358 815.002l333.999 0.000976562c72.667 0 131.5 23.167 176.5 69.5s67.5 107.166 67.5 182.499c0 74 -22.167 133.5 -66.5 178.5s-104.166 67.5 -179.499 67.5h-332v-498z
M357.999 172.003c0 -30 15.001 -45 45.001 -45h308c87.333 0 155.833 25.333 205.5 76s74.5 119 74.5 205s-25.833 154.833 -77.5 206.5s-119.834 77.5 -204.501 77.5h-351v-520z" />
    <glyph glyph-name="C" unicode="C" horiz-adv-x="1421" 
d="M78 731c0 207.333 67.8311 381.33 203.498 521.997s304.5 211 506.5 211c54.667 0 111.834 -5.66699 171.501 -17s117.834 -28.666 174.501 -51.999s103 -55.5 139 -96.5s54 -87.5 54 -139.5v-119h-135v80c0 62.667 -43 113.167 -129 151.5s-176 57.5 -270 57.5
c-161.333 0 -296 -56.333 -404 -169s-162 -255.667 -162 -429s54.667 -320 164 -440s245.333 -180 408 -180c166.667 0 312.667 56.667 438 170l33 32l82 -104c-5.33301 -6.66699 -13.166 -15.167 -23.499 -25.5s-33.333 -28.833 -69 -55.5s-73.667 -50.167 -114 -70.5
s-91.833 -39.166 -154.5 -56.499s-127.334 -26 -194.001 -26c-208.667 0 -380.667 72.833 -516 218.5s-203 324.834 -203 537.501z" />
    <glyph glyph-name="D" unicode="D" horiz-adv-x="1464" 
d="M219 125v1188h-133v127h578c220 0 395.333 -63.833 526 -191.5s196 -303.5 196 -527.5c0 -226.667 -65.5 -403.5 -196.5 -530.5s-306.167 -190.5 -525.5 -190.5h-320c-44 -0 -75.833 9.83301 -95.5 29.5s-29.5 51.5 -29.5 95.5zM362 172c0 -30 15.334 -45 46.001 -45h241
c180 0 323 51.5 429 154.5s159 249.5 159 439.5c0 188.667 -52.833 334.5 -158.5 437.5s-248.834 154.5 -429.501 154.5h-287v-1141z" />
    <glyph glyph-name="E" unicode="E" horiz-adv-x="1142" 
d="M219 125v1188h-133v127h823c44 0 75.833 -10 95.5 -30s29.5 -51.667 29.5 -95v-144h-135v97c0 30 -15 45 -45 45h-492v-525h541v-126h-541v-490c0 -30 15.333 -45 46 -45h505c30 0 45 15 45 45v96h134v-143c0 -44 -10 -75.833 -30 -95.5s-51.667 -29.5 -95 -29.5h-623
c-44 -0 -75.833 9.83301 -95.5 29.5s-29.5 51.5 -29.5 95.5z" />
    <glyph glyph-name="F" unicode="F" horiz-adv-x="1021" 
d="M219 0v1313h-133v127h766c44 0 75.5 -10 94.5 -30s28.5 -51.667 28.5 -95v-144h-133v97c0 30 -15 45 -45 45h-435v-541h523v-127h-523v-645h-143z" />
    <glyph glyph-name="G" unicode="G" horiz-adv-x="1495" 
d="M80 723c0 207.333 69.002 382.669 207.002 526.002s308.667 215 512 215c190 0 348.333 -50.333 475 -151l29 -25l-84 -106c-12 10.667 -29.333 24.167 -52 40.5s-70.334 38.166 -143.001 65.499s-147 41 -223 41c-162.667 0 -298.667 -57.667 -408 -173
s-164 -259.666 -164 -432.999c0 -176 54 -322 162 -438s244 -174 408 -174c53.333 0 105.166 7.16699 155.499 21.5s93 31.666 128 51.999s65.667 41.166 92 62.499s45.833 38.666 58.5 51.999l20 23v178c0 30 -15 45 -45 45h-88v127h144c44 0 75.833 -10 95.5 -30
s29.5 -51.667 29.5 -95v-547h-132v109l3 61h-5c-4 -5.33301 -10.333 -12.5 -19 -21.5s-28 -24.333 -58 -46s-62.167 -41.167 -96.5 -58.5s-78.5 -33.166 -132.5 -47.499s-109 -21.5 -165 -21.5c-198 0 -364.833 71 -500.5 213s-203.5 320.333 -203.5 535z" />
    <glyph glyph-name="H" unicode="H" horiz-adv-x="1550" 
d="M219 0v1268c0 30 -15 45 -45 45h-88v127h152c44 0 75.667 -10 95 -30s29 -51.667 29 -95v-531h828v531c0 44 9.5 75.833 28.5 95.5s50.5 29.5 94.5 29.5h153v-127h-88c-30 0 -45 -15 -45 -45v-1268h-143v657h-828v-657h-143z" />
    <glyph glyph-name="I" unicode="I" horiz-adv-x="600" 
d="M94 0v127h135v1186h-135v127h412v-127h-137v-1186h137v-127h-412z" />
    <glyph glyph-name="J" unicode="J" horiz-adv-x="1034" 
d="M49 403v57.999h144v-49c0 -105.333 25.5 -181.833 76.5 -229.5s113.5 -71.5 187.5 -71.5c72.667 0 134.167 23.833 184.5 71.5s75.5 122.834 75.5 225.501v860c0 30 -15 45 -45 45h-357v127h420c44 0 75.833 -10 95.5 -30s29.5 -51.667 29.5 -95v-912
c0 -144.667 -39.5 -252.167 -118.5 -322.5s-174.5 -105.5 -286.5 -105.5s-207.667 35.5 -287 106.5s-119 178.167 -119 321.5z" />
    <glyph glyph-name="K" unicode="K" horiz-adv-x="1208" 
d="M219 0l0.00390625 1268c0 30 -15 45 -45 45h-88v127h152c44 0 75.667 -10 95 -30s29 -51.667 29 -95v-500h173c60 0 100 17 120 51l349 574h163l-370 -604c-24.667 -39.333 -49.334 -66 -74.001 -80v-4c23.333 -8 46.666 -35.333 69.999 -82l249 -496
c9.33301 -20.667 21.666 -33.667 36.999 -39s38 -8 68 -8h41v-127h-76c-60 0 -102.333 6.5 -127 19.5s-48.667 42.833 -72 89.5l-262 526c-16.667 35.333 -60.334 53 -131.001 53h-158v-688h-143z" />
    <glyph glyph-name="L" unicode="L" horiz-adv-x="1085" 
d="M219 125v1143c0 30 -15 45 -45 45h-88v127h152c44 0 75.667 -10 95 -30s29 -51.667 29 -95v-1143c0 -30 15.333 -45 46 -45h477c30 0 45 15 45 45v96h135v-143c0 -44 -9.83301 -75.833 -29.5 -95.5s-51.5 -29.5 -95.5 -29.5h-596c-44 -0 -75.833 9.83301 -95.5 29.5
s-29.5 51.5 -29.5 95.5z" />
    <glyph glyph-name="M" unicode="M" horiz-adv-x="1730" 
d="M45 0v127h76c28.667 0 43.667 15 45 45l100 1268h146l381 -838l71 -170h4c24.667 64 48 120.667 70 170l381 838h145l101 -1268c1.33301 -30 16.333 -45 45 -45h78v-127h-140c-44 0 -75.167 9.5 -93.5 28.5s-28.833 51.167 -31.5 96.5l-67 874l-6 201h-4
c-26 -84.667 -50.667 -151.667 -74 -201l-342 -731h-129l-340 731l-76 205h-4c0 -84.667 -2 -153 -6 -205l-68 -874c-2.66699 -45.333 -13.167 -77.5 -31.5 -96.5s-49.5 -28.5 -93.5 -28.5h-137z" />
    <glyph glyph-name="N" unicode="N" horiz-adv-x="1556" 
d="M86 0v127h88c30 0 45 15 45 45v1268h131l735 -1026l117 -189h4c-6.66699 75.333 -10 138.333 -10 189v901c0 44 9.83301 75.833 29.5 95.5s51.5 29.5 95.5 29.5h152v-127h-89c-30 0 -45 -15 -45 -45v-1268h-131l-735 1026l-119 186h-4c8 -74 12 -136 12 -186v-901
c0 -44 -9.83301 -75.833 -29.5 -95.5s-51.167 -29.5 -94.5 -29.5h-152z" />
    <glyph glyph-name="O" unicode="O" horiz-adv-x="1619" 
d="M78 729c0 206 71 380 213 522s315.333 213 520 213s378 -71 520 -213s213 -316 213 -522c0 -210 -71.333 -388.167 -214 -534.5s-315.667 -219.5 -519 -219.5c-204.667 0 -378 73.167 -520 219.5s-213 324.5 -213 534.5zM227 729
c0 -173.333 56.667 -319.666 170 -438.999s251.333 -179 414 -179c161.333 0 299 59.667 413 179s171 265.666 171 438.999c0 169.333 -56.667 311.666 -170 426.999s-251.333 173 -414 173s-300.667 -57.667 -414 -173s-170 -257.666 -170 -426.999z" />
    <glyph glyph-name="P" unicode="P" horiz-adv-x="1185" 
d="M219 0v1313h-133v127h608c130 0 236.667 -39.667 320 -119s125 -184.333 125 -315c0 -132.667 -41.667 -239.334 -125 -320.001s-190 -121 -320 -121h-332v-565h-143zM362 692.001h314.001c95.333 0 171.666 28 228.999 84s86 132.667 86 230
c0 95.333 -28.333 170.333 -85 225s-132.667 82 -228 82h-316v-621z" />
    <glyph glyph-name="Q" unicode="Q" horiz-adv-x="1619" 
d="M78 729c0 206 70.666 380 211.999 522s313.666 213 516.999 213c207.333 0 382 -71 524 -213s213 -316 213 -522c0 -188.667 -60 -354 -180 -496l176 -176l-88 -92l-176 178c-131.333 -112 -287.666 -168 -468.999 -168c-203.333 0 -375.666 73.167 -516.999 219.5
s-212 324.5 -212 534.5zM226.999 729c0 -173.333 56 -319.666 168 -438.999s249.333 -179 412 -179c136.667 0 255.334 40 356.001 120l13 11l-172 174l88 92l170 -176c88.667 113.333 133 245.666 133 396.999c0 169.333 -56.333 311.333 -169 426
s-252.334 172 -419.001 172c-164 0 -301.667 -57.333 -413 -172s-167 -256.667 -167 -426z" />
    <glyph glyph-name="R" unicode="R" horiz-adv-x="1239" 
d="M219 0l0.000976562 1313h-133v127h610c121.333 0 220.666 -37.167 297.999 -111.5s116 -173.833 116 -298.5c0 -105.333 -27.333 -191.666 -82 -258.999s-120.334 -109.333 -197.001 -126v-4c19.333 -10.667 36 -29.667 50 -57l206 -410
c9.33301 -20.667 21.666 -33.667 36.999 -39s37.333 -8 66 -8h29v-127h-64c-60 0 -102.333 6.5 -127 19.5s-48.667 42.833 -72 89.5l-206 411c-19.333 36.667 -38.166 60.167 -56.499 70.5s-48.166 15.5 -89.499 15.5h-242v-606h-143zM362.001 732.999h320
c86 0 154 26.333 204 79s75 124 75 214c0 88.667 -25 158.667 -75 210s-117.333 77 -202 77h-322v-580z" />
    <glyph glyph-name="S" unicode="S" horiz-adv-x="1060" 
d="M76 180l88.0049 104.999c4 -4 9.83301 -10.167 17.5 -18.5s23.667 -22.666 48 -42.999s50.166 -38.166 77.499 -53.499s61.833 -29.333 103.5 -42s83.834 -19 126.501 -19c80.667 0 148.167 23.833 202.5 71.5s81.5 109.167 81.5 184.5
c0 65.333 -24.167 121.166 -72.5 167.499s-107.5 85.166 -177.5 116.499l-210 97c-70 33.333 -129.167 79.5 -177.5 138.5s-72.5 129.5 -72.5 211.5c0 102.667 40.833 189.667 122.5 261s187.5 107 317.5 107c54.667 0 109.667 -6.83301 165 -20.5
s106.5 -40.167 153.5 -79.5s70.5 -88.333 70.5 -147v-103h-135v68c0 42 -25 77.333 -75 106s-109 43 -177 43c-90 0 -161.667 -22.5 -215 -67.5s-80 -99.5 -80 -163.5c0 -39.333 10.167 -75.166 30.5 -107.499s47.333 -59 81 -80s71.667 -42.5 114 -64.5
s85.666 -41.833 129.999 -59.5s87.666 -39.5 129.999 -65.5s80.166 -53.667 113.499 -83s60.333 -66.833 81 -112.5s31 -97.167 31 -154.5c0 -112 -40 -206.333 -120 -283s-185.667 -115 -317 -115c-54.667 0 -107.834 7.16699 -159.501 21.5s-94.5 31.5 -128.5 51.5
s-64.333 39.833 -91 59.5s-46.334 37.167 -59.001 52.5z" />
    <glyph glyph-name="T" unicode="T" horiz-adv-x="1269" 
d="M563 0v1313h-356c-30 0 -45 -15 -45 -45v-97h-131v152c0 44 8.5 74.5 25.5 91.5s47.167 25.5 90.5 25.5h975c44 0 74.5 -8.5 91.5 -25.5s25.5 -47.5 25.5 -91.5v-152h-133v97c0 30 -15 45 -45 45h-354v-1313h-144z" />
    <glyph glyph-name="U" unicode="U" horiz-adv-x="1468" 
d="M203 494v774.001c0 30 -15 45 -45 45h-88v127h151c44 0 75.833 -10 95.5 -30s29.5 -51.667 29.5 -95v-815c0 -120 35.167 -214.833 105.5 -284.5s164.166 -104.5 281.499 -104.5c118.667 0 213.167 35.167 283.5 105.5s105.5 166.166 105.5 287.499v811
c0 44 10 75.833 30 95.5s51.667 29.5 95 29.5h152v-127h-88c-30 0 -45 -15 -45 -45v-774c0 -155.333 -48.833 -280.666 -146.5 -375.999s-225.667 -143 -384 -143s-286.666 47.667 -384.999 143s-147.5 220.666 -147.5 375.999z" />
    <glyph glyph-name="V" unicode="V" horiz-adv-x="1337" 
d="M592 0l-472.998 1268c-10.667 30 -35.334 45 -74.001 45h-20v127h63c52 0 88.5 -7.5 109.5 -22.5s40.5 -47.167 58.5 -96.5l354 -969l56 -186h4c19.333 75.333 37.666 137.333 54.999 186l354 969c18 49.333 37.833 81.5 59.5 96.5s58.5 22.5 110.5 22.5h62v-127h-19
c-38 0 -62.333 -15 -73 -45l-474 -1268h-153z" />
    <glyph glyph-name="W" unicode="W" horiz-adv-x="1935" 
d="M465 0l-330.002 1268c-8 30 -33.333 45 -76 45h-24v127h63c54.667 0 94.334 -7.83301 119.001 -23.5s43 -47.5 55 -95.5l250 -993l31 -154h4c12 53.333 25 104.666 39 153.999l317 1106h142l288 -1106l33 -154h4c9.33301 53.333 20.333 104.666 33 153.999l250 993
c12 48 30.333 79.833 55 95.5s64.334 23.5 119.001 23.5h64v-127h-23c-42 0 -67.333 -15 -76 -45l-332 -1268h-170l-268 1001l-47 213h-4c-16.667 -79.333 -33.667 -149.333 -51 -210l-295 -1004h-170z" />
    <glyph glyph-name="X" unicode="X" horiz-adv-x="1167" 
d="M31 0l457.999 752l-311 508c-22 35.333 -56 53 -102 53h-43v127h76c52 0 90.833 -7.5 116.5 -22.5s52.834 -45.833 81.501 -92.5l185 -309l92 -164h4c28.667 60 58 114.667 88 164l184 309c28.667 46.667 56 77.5 82 92.5s65 22.5 117 22.5h76v-127h-43
c-46.667 0 -81 -17.667 -103 -53l-313 -508l461 -752h-164l-299 496l-92 157h-4c-27.333 -57.333 -56 -110.333 -86 -159l-297 -494h-164z" />
    <glyph glyph-name="Y" unicode="Y" horiz-adv-x="1212" 
d="M535 0v627l-385 633c-22 35.333 -54.333 53 -97 53h-33v127h56c50.667 0 88.5 -6.83301 113.5 -20.5s52.5 -45.167 82.5 -94.5l244 -407l88 -162h4c28.667 57.333 58 111.333 88 162l244 407c30 49.333 57.667 80.833 83 94.5s63.333 20.5 114 20.5h55v-127h-33
c-42 0 -73.333 -17.667 -94 -53l-387 -633v-627h-143z" />
    <glyph glyph-name="Z" unicode="Z" horiz-adv-x="1177" 
d="M39 0l0.000976562 100l772 1082l50 65c17.333 22 30.666 38.333 39.999 49l14 17v4c-23.333 -2.66699 -58 -4 -104 -4h-573c-30 0 -45 -15 -45 -45v-97h-134v144c0 44 10 75.833 30 95.5s51.667 29.5 95 29.5h908v-101l-770 -1081l-52 -65l-41 -50l-14 -16v-4
c23.333 2.66699 59 4 107 4h620c30 0 45 15 45 45v96h133v-143c0 -44 -9.83301 -75.833 -29.5 -95.5s-51.5 -29.5 -95.5 -29.5h-956z" />
    <glyph glyph-name="bracketleft" unicode="[" horiz-adv-x="620" 
d="M207 -70v1440c0 44 9.83301 75.833 29.5 95.5s51.5 29.5 95.5 29.5h151v-115h-102c-30 0 -45 -15 -45 -45v-1370c0 -30 15 -45 45 -45h102v-115h-151c-44 0 -75.833 9.83301 -95.5 29.5s-29.5 51.5 -29.5 95.5z" />
    <glyph glyph-name="backslash" unicode="\" horiz-adv-x="649" 
d="M530 -86l-520 1606h131l518 -1606h-129z" />
    <glyph glyph-name="bracketright" unicode="]" horiz-adv-x="620" 
d="M137 -80h103c30 0 45 15 45 45v1370c0 30 -15 45 -45 45h-103v115h152c44 0 75.833 -9.83301 95.5 -29.5s29.5 -51.5 29.5 -95.5v-1440c0 -44 -10 -75.833 -30 -95.5s-51.667 -29.5 -95 -29.5h-152v115z" />
    <glyph glyph-name="asciicircum" unicode="^" 
d="M150 512l405 928h96l406 -928h-133l-320 758l-319 -758h-135z" />
    <glyph glyph-name="underscore" unicode="_" horiz-adv-x="1077" 
d="M10 0h1057v-119h-1057v119z" />
    <glyph glyph-name="grave" unicode="`" horiz-adv-x="737" 
d="M369 1540l-179 244h156l143 -244h-120z" />
    <glyph glyph-name="a" unicode="a" horiz-adv-x="1083" 
d="M82 281c0 236 210.332 354 630.999 354h57v12c0 106.667 -20.5 181.834 -61.5 225.501s-109.167 65.5 -204.5 65.5c-42 0 -86 -6.83301 -132 -20.5s-69 -36.834 -69 -69.501v-66h-133v99c0 32.667 13 61.667 39 87s58.5 43.666 97.5 54.999s75.167 19.5 108.5 24.5
s63.666 7.5 90.999 7.5c151.333 0 256.333 -34.833 315 -104.5s88 -166.834 88 -291.501v-493c0 -30 15 -45 45 -45h86v-121h-141c-44 0 -75.5 9.83301 -94.5 29.5s-28.5 50.834 -28.5 93.501l2 76h-4c1.33301 0 -1.66699 -7.5 -9 -22.5s-19.666 -33.833 -36.999 -56.5
s-38.166 -45 -62.499 -67s-57.333 -40.5 -99 -55.5s-86.5 -22.5 -134.5 -22.5c-94 0 -175.833 26.833 -245.5 80.5s-104.5 128.834 -104.5 225.501zM224.999 289c0 -52 20.166 -97.501 60.499 -136.501s96.833 -58.5 169.5 -58.5c92.667 0 168.334 39.667 227.001 119
s88 167.333 88 264v47h-59c-36.667 0 -67.667 -0.666992 -93 -2s-59.5 -4 -102.5 -8s-79.333 -11.167 -109 -21.5s-59.5 -23.666 -89.5 -39.999s-52.833 -38.5 -68.5 -66.5s-23.5 -60.333 -23.5 -97z" />
    <glyph glyph-name="b" unicode="b" horiz-adv-x="1196" 
d="M172 0l0.00195312 1274c0 30 -15 45 -45 45h-86v121h145c44 0 75.833 -10 95.5 -30s29.5 -51.667 29.5 -95v-373l-4 -84h4l12 22c4.66699 8.66699 16.5 24.334 35.5 47.001s40.833 42.5 65.5 59.5s58.167 32.667 100.5 47s88.166 21.5 137.499 21.5
c136.667 0 245.5 -49.833 326.5 -149.5s121.5 -230.167 121.5 -391.5s-43.333 -291.5 -130 -390.5s-198.334 -148.5 -335.001 -148.5c-135.333 0 -240.333 54 -315 162l-23 37h-4c2.66699 -23.333 4 -51.333 4 -84v-90h-135zM307.002 511.999c0 -112 28.667 -209 86 -291
s138 -123 242 -123c94 0 172.833 37.667 236.5 113s95.5 176.333 95.5 303c0 124 -30.5 224 -91.5 300s-139.167 114 -234.5 114c-94 0 -173.167 -34.833 -237.5 -104.5s-96.5 -173.5 -96.5 -311.5z" />
    <glyph glyph-name="c" unicode="c" horiz-adv-x="1081" 
d="M82 514c0 157.333 51.835 286.832 155.502 388.499s232.834 152.5 387.501 152.5c32.667 0 68.5 -3.83301 107.5 -11.5s78.5 -19 118.5 -34s73.333 -37.833 100 -68.5s40 -65.667 40 -105v-93h-131v60c0 39.333 -26.333 70.333 -79 93s-104.667 34 -156 34
c-113.333 0 -208.333 -38.667 -285 -116s-115 -177.333 -115 -300s39.333 -222 118 -298s174 -114 286 -114c124 0 229.667 43.667 317 131l15 15l65 -105l-16.5 -17c-7 -7.33301 -23.333 -21 -49 -41s-52.834 -37.167 -81.501 -51.5s-66.334 -27.666 -113.001 -39.999
s-94.334 -18.5 -143.001 -18.5c-155.333 0 -284.333 50.167 -387 150.5s-154 229.833 -154 388.5z" />
    <glyph glyph-name="d" unicode="d" horiz-adv-x="1204" 
d="M86 516c0 161.333 43 291.499 129 390.499s197.333 148.5 334 148.5c138 0 243 -52.667 315 -158l21 -35h4c-2.66699 23.333 -4 49.333 -4 78v334c0 30 -15 45 -45 45h-86v121h145c44 0 75.833 -10 95.5 -30s29.5 -51.667 29.5 -95v-1149c0 -30 15 -45 45 -45h86v-121
h-143c-82 0 -123 38.333 -123 115l4 65h-4l-11 -22c-4.66699 -9.33301 -16.667 -25.666 -36 -48.999s-41.333 -44 -66 -62s-58.5 -34.5 -101.5 -49.5s-89.5 -22.5 -139.5 -22.5c-136.667 0 -245.667 49.833 -327 149.5s-122 230.167 -122 391.5zM555 99.999
c94 0 173.167 34.834 237.5 104.501s96.5 173.5 96.5 311.5c0 113.333 -28.667 210.666 -86 291.999s-138 122 -242 122c-94 0 -172.833 -37.5 -236.5 -112.5s-95.5 -175.333 -95.5 -301s30.167 -226.5 90.5 -302.5s138.833 -114 235.5 -114z" />
    <glyph glyph-name="e" unicode="e" horiz-adv-x="1122" 
d="M82 514c0 164 48.8311 295.168 146.498 393.501s218.167 147.5 361.5 147.5c136.667 0 242.834 -45.5 318.501 -136.5s113.5 -203.833 113.5 -338.5l-4 -70h-791c1.33301 -125.333 40.666 -225 117.999 -299s171.333 -111 282 -111c113.333 0 213 39 299 117l10 10
l68 -104c-10.667 -10.667 -26.667 -24.334 -48 -41.001s-65.166 -38.667 -131.499 -66s-134.166 -41 -203.499 -41c-154 0 -282.333 50.5 -385 151.5s-154 230.167 -154 387.5zM232.998 621.001h646.003c-4 102.667 -33.333 181.167 -88 235.5s-122.334 81.5 -203.001 81.5
c-88.667 0 -165.834 -27.833 -231.501 -83.5s-106.834 -133.5 -123.501 -233.5z" />
    <glyph glyph-name="f" unicode="f" horiz-adv-x="624" 
d="M180 0l0.000976562 913.002h-129v117h129v37c0 79.333 12.667 146.666 38 201.999s58.166 94.833 98.499 118.5s77.833 40 112.5 49s70 13.5 106 13.5l63 -4v-125c-12 2.66699 -28.333 4 -49 4c-24.667 0 -48 -3 -70 -9s-46.167 -16.833 -72.5 -32.5
s-47.5 -42.334 -63.5 -80.001s-24 -83.167 -24 -136.5v-37h263v-117h-263v-913h-139z" />
    <glyph glyph-name="g" unicode="g" horiz-adv-x="1185" 
d="M86 534.5c0 155.667 40.334 281.334 121.001 377.001s189 143.5 325 143.5c52 0 99.167 -6.16699 141.5 -18.5s75.5 -27 99.5 -44s44.167 -34.167 60.5 -51.5s27.166 -32 32.499 -44l8 -18h5v39c0 75.333 38.667 112.666 116 111.999h144v-121h-84c-30 0 -45 -15 -45 -45
v-839c0 -152.667 -47.5 -266.667 -142.5 -342s-212.833 -113 -353.5 -113c-117.333 0 -229.333 27.333 -336 82l53 117c84.667 -48 177.667 -72 279 -72c108 0 195 26.667 261 80s99 134.333 99 243v91l2 73h-4c-64 -118.667 -171.667 -178 -323 -178
c-138 0 -249 49.167 -333 147.5s-126 225.333 -126 381zM565.001 131c91.333 0 165.334 31.833 222.001 95.5s85 166.5 85 308.5c0 262 -108.333 393 -325 393c-100 0 -178 -34.5 -234 -103.5s-84 -165 -84 -288s30.667 -221.333 92 -295s142.666 -110.5 243.999 -110.5z
" />
    <glyph glyph-name="h" unicode="h" horiz-adv-x="1239" 
d="M172 0v1274c0 30 -15 45 -45 45h-86v121h145c44 0 75.833 -9.66699 95.5 -29s29.5 -50 29.5 -92v-436l-4 -84h4c24.667 61.333 72.834 119.333 144.501 174s159.5 82 263.5 82c124 0 212.667 -33.5 266 -100.5s80 -166.833 80 -299.5v-489c0 -30 15 -45 45 -45h86v-121
h-145c-44 0 -75.833 9.83301 -95.5 29.5s-29.5 51.5 -29.5 95.5v493c0 46.667 -2.5 86 -7.5 118s-15 63.5 -30 94.5s-38.167 54.333 -69.5 70s-71 23.5 -119 23.5c-87.333 0 -165.5 -27.333 -234.5 -82s-114.833 -125 -137.5 -211
c-10.667 -36.667 -16.334 -82.334 -17.001 -137.001v-494h-139z" />
    <glyph glyph-name="i" unicode="i" horiz-adv-x="514" 
d="M184 1264v176h135v-176h-135zM188 125v739c0 30 -15 45 -45 45h-86v121h146c44 0 75.833 -9.83301 95.5 -29.5s29.5 -51.5 29.5 -95.5v-739c0 -30 15 -45 45 -45h86v-121h-146c-44 -0 -75.833 9.83301 -95.5 29.5s-29.5 51.5 -29.5 95.5z" />
    <glyph glyph-name="j" unicode="j" horiz-adv-x="548" 
d="M233 1264v176h134v-176h-134zM-43 -295c12 -1.33301 27.001 -1.99805 45.001 -1.99805c24.667 0 48.667 3 72 9s48.166 17.333 74.499 34s47.5 44 63.5 82s24 84.333 24 139v897c0 30 -15.333 45 -46 45h-86v121h146c44 0 75.833 -9.83301 95.5 -29.5
s29.5 -51.5 29.5 -95.5v-944c0 -80.667 -12.667 -148.334 -38 -203.001s-58.5 -93.834 -99.5 -117.501s-78.833 -40 -113.5 -49s-70.667 -13.5 -108 -13.5l-59 6v121z" />
    <glyph glyph-name="k" unicode="k" horiz-adv-x="1019" 
d="M172 0v1274c0 30 -15 45 -45 45h-86v121h145c45.333 0 77.5 -9 96.5 -27s28.5 -48.667 28.5 -92v-684h107c52 0 91 16.333 117 49l264 344h170l-297 -377c-15.333 -19.333 -29.5 -35 -42.5 -47s-22.167 -19.333 -27.5 -22l-8 -4v-5
c20.667 -9.33301 41.667 -34.333 63 -75l187 -334c9.33301 -18 20.5 -30 33.5 -36s33.167 -9 60.5 -9h55v-121h-96c-52 0 -88.833 6.5 -110.5 19.5s-44.167 40.5 -67.5 82.5l-205 369c-16.667 30 -52.667 45 -108 45h-95v-516h-139z" />
    <glyph glyph-name="l" unicode="l" horiz-adv-x="501" 
d="M176 125v1149c0 30 -15 45 -45 45h-86v121h145c44 0 75.833 -10 95.5 -30s29.5 -51.667 29.5 -95v-1149c0 -30 15 -45 45 -45h86v-121h-145c-44 -0 -75.833 9.83301 -95.5 29.5s-29.5 51.5 -29.5 95.5z" />
    <glyph glyph-name="m" unicode="m" horiz-adv-x="1906" 
d="M178 0l0.000976562 864c0 30 -15 45 -45 45h-86v121h143c83.333 0 125 -38.333 125 -115v-47l-4 -73h4c26 70.667 74.833 131.667 146.5 183s147.167 77 226.5 77c181.333 0 288 -86 320 -258h4c28.667 72.667 77.834 133.834 147.501 183.501s146.834 74.5 231.501 74.5
c121.333 0 208.666 -33.5 261.999 -100.5s80 -166.833 80 -299.5v-489c0 -30 15 -45 45 -45h86v-121h-146c-44 0 -75.833 9.83301 -95.5 29.5s-29.5 51.5 -29.5 95.5v496c0 96.667 -15.667 172 -47 226s-90 81 -176 81c-75.333 0 -143 -28.667 -203 -86
s-101 -125.666 -123 -204.999c-12 -38 -18 -88 -18 -150v-487h-139v621c0 45.333 -2.5 83.5 -7.5 114.5s-14.333 62.667 -28 95s-35.834 56.666 -66.501 72.999s-69 24.5 -115 24.5c-80.667 0 -151 -29.333 -211 -88s-101.667 -130.334 -125 -215.001
c-10.667 -38 -16.334 -84 -17.001 -138v-487h-139z" />
    <glyph glyph-name="n" unicode="n" horiz-adv-x="1245" 
d="M178 0l0.000976562 863.999c0 30 -15 45 -45 45h-86v121h143c83.333 0 125 -38.333 125 -115v-47l-4 -73h4c24.667 62.667 72.167 121.667 142.5 177s159.5 83 267.5 83c124 0 212.667 -33.5 266 -100.5s80 -166.833 80 -299.5v-489c0 -30 15 -45 45 -45h86v-121h-145
c-44 0 -75.833 9.83301 -95.5 29.5s-29.5 51.5 -29.5 95.5v493c0 96.667 -14.667 171.834 -44 225.501s-89 80.5 -179 80.5c-87.333 0 -165.833 -27 -235.5 -81s-116.167 -124 -139.5 -210c-10.667 -38 -16.334 -84.333 -17.001 -139v-494h-139z" />
    <glyph glyph-name="o" unicode="o" horiz-adv-x="1251" 
d="M82 520c0 151.333 52.832 278.333 158.499 381s233.834 154 384.501 154c151.333 0 279.833 -51.167 385.5 -153.5s158.5 -229.5 158.5 -381.5c0 -154 -52.833 -283.333 -158.5 -388s-233.5 -157 -383.5 -157c-151.333 0 -280 52.333 -386 157s-159 234 -159 388z
M224.999 520c0 -118.667 39 -218.334 117 -299.001s173 -121 285 -121c110.667 0 204.834 40.333 282.501 121s116.5 180.334 116.5 299.001c0 116 -38.833 213 -116.5 291s-171.834 117 -282.501 117c-112 0 -207 -39 -285 -117s-117 -175 -117 -291z" />
    <glyph glyph-name="p" unicode="p" horiz-adv-x="1202" 
d="M178 -410l0.000976562 1274c0 30 -15 45 -45 45h-86v121h141c82 0 123 -36 123 -108l-2 -70h4l12 21c4.66699 8.66699 16.5 25 35.5 49s40.5 45 64.5 63s57.833 34.167 101.5 48.5s90.834 21.5 141.501 21.5c136.667 0 245.5 -49.833 326.5 -149.5
s121.5 -230.167 121.5 -391.5s-43 -291.5 -129 -390.5s-196.667 -148.5 -332 -148.5c-46.667 0 -90.334 6.83301 -131.001 20.5s-73 30.167 -97 49.5s-44.833 38.166 -62.5 56.499s-29.834 34.5 -36.501 48.5l-11 20h-4c2.66699 -24.667 4 -54.667 4 -90v-490h-139z
M313.001 512.001c0 -112 29 -208.999 87 -290.999s138.333 -123 241 -123c94 0 172.833 37.667 236.5 113s95.5 176.333 95.5 303c0 125.333 -30 225.666 -90 300.999s-138.667 113 -236 113c-94 0 -173.167 -34.833 -237.5 -104.5s-96.5 -173.5 -96.5 -311.5z" />
    <glyph glyph-name="q" unicode="q" horiz-adv-x="1204" 
d="M88 516c0 161.333 42.9971 291.501 128.997 390.501s197.333 148.5 334 148.5c46.667 0 90.334 -6.83301 131.001 -20.5s73.334 -30.5 98.001 -50.5s45.834 -39.5 63.501 -58.5s30.167 -35.167 37.5 -48.5l10 -21h4c-1.33301 19.333 -2 42 -2 68c0 70.667 41 106 123 106
h141v-121h-86c-30 0 -45 -15 -45 -45v-1274h-139v494l4 90h-4l-11 -21c-4.66699 -8.66699 -16.667 -24.334 -36 -47.001s-41.333 -43 -66 -61s-58.167 -34.167 -100.5 -48.5s-87.833 -21.5 -136.5 -21.5c-136.667 0 -245.667 49.833 -327 149.5s-122 230.167 -122 391.5z
M556.997 100.001c94 0 173.167 34.834 237.5 104.501s96.5 173.5 96.5 311.5c0 113.333 -28.667 210.666 -86 291.999s-138 122 -242 122c-94 0 -173.167 -37.5 -237.5 -112.5s-96.5 -175.333 -96.5 -301s30.5 -226.5 91.5 -302.5s139.833 -114 236.5 -114z" />
    <glyph glyph-name="r" unicode="r" horiz-adv-x="741" 
d="M178 0l0.000976562 864c0 30 -15 45 -45 45h-86v121h143c83.333 0 125 -39 125 -117v-69l-4 -78h4c26 82 67.333 148.167 124 198.5s124 75.5 202 75.5l55 -6v-137c-16.667 2.66699 -33.667 4 -51 4c-70.667 0 -132.334 -24.5 -185.001 -73.5
s-90.667 -113.167 -114 -192.5c-19.333 -61.333 -29 -128.333 -29 -201v-434h-139z" />
    <glyph glyph-name="s" unicode="s" horiz-adv-x="901" 
d="M59 156l80.001 95.999c2.66699 -4 7.16699 -9.5 13.5 -16.5s19.666 -19.667 39.999 -38s41.833 -34.333 64.5 -48s52 -26 88 -37s73.333 -16.5 112 -16.5c61.333 0 112.833 14.333 154.5 43s62.5 69 62.5 121c0 40.667 -19.833 76.167 -59.5 106.5
s-87.834 56.333 -144.501 78s-113.334 44.834 -170.001 69.501s-104.834 59.167 -144.501 103.5s-59.5 97.166 -59.5 158.499c0 90 34.167 159 102.5 207s156.5 72 264.5 72c30 0 61.333 -3.16699 94 -9.5s66.167 -16 100.5 -29s62.666 -32.333 84.999 -58
s33.5 -55.834 33.5 -90.501v-88h-131v49c0 34 -19.167 60 -57.5 78s-78.5 27 -120.5 27c-152.667 0 -229 -50 -229 -150c0 -42 19.667 -78 59 -108s87.333 -55.667 144 -77s113.334 -44.166 170.001 -68.499s104.834 -59.166 144.501 -104.499s59.5 -99.333 59.5 -162
c0 -84.667 -34.167 -154 -102.5 -208s-154.166 -81 -257.499 -81c-151.333 0 -275.666 51.333 -372.999 154z" />
    <glyph glyph-name="t" unicode="t" horiz-adv-x="686" 
d="M190 375v538.001h-135v117h138v285h137v-285h258v-117h-258v-524c0 -46.667 5.83301 -87 17.5 -121s25.667 -60.5 42 -79.5s35.333 -34 57 -45s41.334 -18.167 59.001 -21.5s36.167 -5 55.5 -5l47 4v-125c-16.667 -2.66699 -36.334 -4 -59.001 -4
c-28.667 0 -56.667 2 -84 6s-58.5 13.833 -93.5 29.5s-65 36.5 -90 62.5s-46.5 63.667 -64.5 113s-27 106.666 -27 171.999z" />
    <glyph glyph-name="u" unicode="u" horiz-adv-x="1234" 
d="M174 375l-0.000976562 489.002c0 30 -15 45 -45 45h-86v121h145c44 0 75.833 -9.5 95.5 -28.5s29.5 -49.833 29.5 -92.5v-497c0 -96.667 15 -171.834 45 -225.501s90.333 -80.5 181 -80.5c112 0 203.167 42.667 273.5 128s105.5 186.333 105.5 303v493h139v-864
c0 -30 15 -45 45 -45h86v-121h-141c-83.333 0 -125 38.333 -125 115v47l4 74h-4c-26 -62.667 -74.167 -121.834 -144.5 -177.501s-156.166 -83.5 -257.499 -83.5c-120 0 -207.667 32.833 -263 98.5s-83 166.167 -83 301.5z" />
    <glyph glyph-name="v" unicode="v" horiz-adv-x="1060" 
d="M455 0l-336 862c-12 31.333 -36 47 -72 47h-18v121h55c49.333 0 84.5 -7.16699 105.5 -21.5s40.5 -44.5 58.5 -90.5l248 -644l34 -120h5c10.667 46.667 22 86.667 34 120l248 644c18 46.667 37.5 77 58.5 91s55.5 21 103.5 21h53v-121h-18
c-36.667 0 -60.667 -15.667 -72 -47l-336 -862h-151z" />
    <glyph glyph-name="w" unicode="w" horiz-adv-x="1708" 
d="M414 0l-295.001 861.999c-10.667 31.333 -34.667 47 -72 47h-27v121h72c50.667 0 86.5 -7.16699 107.5 -21.5s39.167 -45.5 54.5 -93.5l211 -653l31 -110h4c10.667 40.667 21.334 77.334 32.001 110.001l252 764h140l252 -764l32 -110h4c8 39.333 17.667 76 29 110
l213 653c15.333 48 33.5 79.167 54.5 93.5s56.833 21.5 107.5 21.5h72v-121h-29c-36.667 0 -60.667 -15.667 -72 -47l-295 -862h-153l-252 733l-31 111h-4c-9.33301 -39.333 -20.333 -76.333 -33 -111l-250 -733h-155z" />
    <glyph glyph-name="x" unicode="x" horiz-adv-x="976" 
d="M39 0l358.002 537l-223 329c-20.667 28.667 -52 43 -94 43h-43v121h76c52 0 89.167 -6.83301 111.5 -20.5s49.166 -44.167 80.499 -91.5l148 -230l34 -61h5l32 61l150 230c31.333 48 58.166 78.667 80.499 92s59.5 20 111.5 20h74v-121h-41
c-46.667 0 -78.667 -13.667 -96 -41l-223 -331l360 -537h-164l-252 383l-32 57h-5c-10.667 -19.333 -22 -38.333 -34 -57l-252 -383h-162z" />
    <glyph glyph-name="y" unicode="y" horiz-adv-x="1103" 
d="M82 -227c0 -2.66699 6.16504 -9.83301 18.498 -21.5s31.5 -24 57.5 -37s52 -19.5 78 -19.5c80.667 0 144 56 190 168l61 141l-362 858c-13.333 31.333 -37.333 47 -72 47h-20v121h63c46.667 0 79.834 -7.16699 99.501 -21.5s39.167 -44.5 58.5 -90.5l264 -644l37 -110h4
c9.33301 39.333 21 76 35 110l254 644c18 46.667 37.167 77 57.5 91s54.5 21 102.5 21h63v-121h-20c-35.333 0 -59.333 -15.667 -72 -47l-444 -1077c-27.333 -66.667 -66.666 -119.167 -117.999 -157.5s-110.333 -57.5 -177 -57.5c-88.667 0 -162 31.333 -220 94l-4 6z" />
    <glyph glyph-name="z" unicode="z" horiz-adv-x="1021" 
d="M80 0v90l579 723l82 94v4c-23.333 -2.66699 -57.333 -4 -102 -4h-377c-30 0 -45 -15 -45 -45v-80h-131v123c0 44 9.83301 75.833 29.5 95.5s51.5 29.5 95.5 29.5h715v-92l-578 -721l-86 -94v-4c24.667 2.66699 59.667 4 105 4h426c30 0 45 15 45 45v80h131v-123
c0 -44 -10 -75.833 -30 -95.5s-51.667 -29.5 -95 -29.5h-764z" />
    <glyph glyph-name="braceleft" unicode="{" horiz-adv-x="667" 
d="M242 170l-0.00292969 194.996c0 39.333 -6.16699 74.333 -18.5 105s-26.666 53.834 -42.999 69.501s-33.166 28.334 -50.499 38.001s-32 15.167 -44 16.5l-18 4v127c4 0 10 1 18 3s22 8.16699 42 18.5s37.833 23 53.5 38s29.667 38.167 42 69.5s18.5 67 18.5 107v167
c0 64 8.16699 120 24.5 168s35.666 84.333 57.999 109s49 44.167 80 58.5s57 23.166 78 26.499s42.5 5 64.5 5h31v-115h-19c-18 0 -35.5 -2.33301 -52.5 -7s-37 -14.834 -60 -30.501s-41.333 -42 -55 -79s-20.5 -83.5 -20.5 -139.5v-200
c0 -36.667 -5.5 -71.167 -16.5 -103.5s-24.667 -57.666 -41 -75.999s-32.666 -34 -48.999 -47s-30.166 -21.5 -41.499 -25.5l-16 -8v-5c4 -1.33301 9.83301 -3.66602 17.5 -6.99902s21 -11.5 40 -24.5s35.667 -28.333 50 -46s27.333 -42.5 39 -74.5s17.5 -68 17.5 -108v-225
c0 -54.667 7.16699 -100.667 21.5 -138s32.666 -63.666 54.999 -78.999s42 -25.666 59 -30.999s34.5 -8 52.5 -8h19v-115c-8 -1.33301 -18.333 -2 -31 -2c-22 0 -43.5 1.83301 -64.5 5.5s-47 13 -78 28s-57.667 34.667 -80 59s-41.666 60.5 -57.999 108.5
s-24.5 104 -24.5 168z" />
    <glyph glyph-name="bar" unicode="|" horiz-adv-x="583" 
d="M227 -322v1936h129v-1936h-129z" />
    <glyph glyph-name="braceright" unicode="}" horiz-adv-x="667" 
d="M90 -82l20.998 0.00488281c16.667 0 33.334 2.66699 50.001 8s36.334 15.666 59.001 30.999s41.167 41.666 55.5 78.999s21.5 83.333 21.5 138v225c0 39.333 5.5 75.166 16.5 107.499s24.667 57.333 41 75s32.666 33 48.999 46s29.833 21.5 40.5 25.5l17 6v5
c-4 1.33301 -9.83301 3.66602 -17.5 6.99902s-21 12.166 -40 26.499s-35.667 30.333 -50 48s-27.333 42.5 -39 74.5s-17.5 66.667 -17.5 104v200c0 56 -6.83301 102.5 -20.5 139.5s-32.167 63.333 -55.5 79s-43.166 25.834 -59.499 30.501s-33.166 7 -50.499 7h-21v115h33
c20.667 0 41.5 -1.66699 62.5 -5s46.833 -12.5 77.5 -27.5s57.334 -34.5 80.001 -58.5s42.167 -59.833 58.5 -107.5s24.5 -103.834 24.5 -168.501v-167c0 -116 45.667 -191.333 137 -226l37 -10v-127c-4 0 -10.167 -1 -18.5 -3s-22.333 -8.16699 -42 -18.5
s-37.334 -23 -53.001 -38s-29.667 -37.833 -42 -68.5s-18.5 -65.667 -18.5 -105v-195c0 -64 -8.16699 -120 -24.5 -168s-35.833 -84.167 -58.5 -108.5s-49.334 -44 -80.001 -59s-56.5 -24.333 -77.5 -28s-41.833 -5.5 -62.5 -5.5l-33 2v115z" />
    <glyph glyph-name="asciitilde" unicode="~" 
d="M137 428c0 108 23.167 187.832 69.5 239.499s109.833 77.5 190.5 77.5c40.667 0 77.5 -7.16699 110.5 -21.5s60.167 -31.833 81.5 -52.5l61 -64c20 -21.333 43 -39.166 69 -53.499s54.667 -21.5 86 -21.5c54.667 0 92.5 21.167 113.5 63.5s31.5 89.5 31.5 141.5h121
c0 -108 -23.167 -187.833 -69.5 -239.5s-109.833 -77.5 -190.5 -77.5c-50.667 0 -95.5 11.167 -134.5 33.5s-68.667 46.5 -89 72.5s-46.5 50.333 -78.5 73s-67.333 34 -106 34c-54.667 0 -92.5 -21.167 -113.5 -63.5s-31.5 -89.5 -31.5 -141.5h-121z" />
    <glyph glyph-name="uni00A0" unicode="&#xa0;" horiz-adv-x="557" 
 />
    <glyph glyph-name="exclamdown" unicode="&#xa1;" horiz-adv-x="608" 
d="M223 872v158h158v-158h-158zM231 -410l7 1063h131l6 -1063h-144z" />
    <glyph glyph-name="cent" unicode="&#xa2;" horiz-adv-x="1116" 
d="M524 -80l0.000976562 227.001c-130 15.333 -231 76.166 -303 182.499s-108 236.666 -108 390.999s36.167 284.5 108.5 390.5s173.166 166.333 302.499 181v228h117v-228c165.333 -19.333 287.666 -120.333 366.999 -303l-131 -49
c-62.667 147.333 -158.334 221 -287.001 221c-108 0 -190.333 -41 -247 -123s-85 -187.667 -85 -317c0 -131.333 28 -237.5 84 -318.5s138.667 -121.5 248 -121.5c128.667 0 224.334 73.667 287.001 221l131 -51c-83.333 -187.333 -205.666 -288.666 -366.999 -303.999v-227
h-117z" />
    <glyph glyph-name="sterling" unicode="&#xa3;" horiz-adv-x="1191" 
d="M111 0v127h129v541h-93v112h93v305c0 108 39.833 198.167 119.5 270.5s180.5 108.5 302.5 108.5c118.667 0 223 -36.667 313 -110l8 -6l-88 -103c-65.333 57.333 -143 86 -233 86c-86 0 -154 -24.167 -204 -72.5s-75 -108.833 -75 -181.5v-297h391v-112h-391v-541h539
c30 0 45 15 45 45v96h133v-143c0 -44 -10 -75.833 -30 -95.5s-51.667 -29.5 -95 -29.5h-864z" />
    <glyph glyph-name="yen" unicode="&#xa5;" horiz-adv-x="1243" 
d="M219 436v107h332v84l-59 94h-281v104h215v4l-268 439c-18 30 -51 45 -99 45h-24v127h49c52 0 91.667 -7.16699 119 -21.5s55.333 -45.5 84 -93.5l243 -407l88 -160h5c28.667 56 58 109.333 88 160l245 407c27.333 48 55 79.167 83 93.5s68 21.5 120 21.5h47v-127h-24
c-48 0 -81 -15 -99 -45l-266 -439v-4h205v-104h-272l-56 -94v-84h328v-107h-328v-436h-143v436h-332z" />
    <glyph glyph-name="section" unicode="&#xa7;" horiz-adv-x="849" 
d="M297 174l-139 889.001c-5.33301 22 -8 46 -8 72c0 95.333 32.333 174 97 236s149.667 93 255 93c91.333 -1.33301 170.333 -30 237 -86l-71 -96c-46.667 39.333 -102 59 -166 59s-117.667 -19.333 -161 -58s-65 -92.334 -65 -161.001c0 -22 3 -43 9 -63l135 -885h-123z
M123 -40.999l72 97.999c48 -40.667 104 -61 168 -61s117.167 20.167 159.5 60.5s63.5 94.5 63.5 162.5c0 23.333 -2.66699 45.333 -8 66l-134 878h123l140 -889c5.33301 -35.333 8 -59 8 -71c0 -95.333 -32.833 -174.166 -98.5 -236.499s-151.167 -93.5 -256.5 -93.5
c-91.333 1.33301 -170.333 30 -237 86z" />
    <glyph glyph-name="dieresis" unicode="&#xa8;" horiz-adv-x="1009" 
d="M629 1608v176h121v-176h-121zM322 1608v176h120v-176h-120z" />
    <glyph glyph-name="copyright" unicode="&#xa9;" horiz-adv-x="1624" 
d="M84 721c0 206 70.6689 381.333 212.002 526s311.666 217 510.999 217c203.333 0 376.333 -72.333 519 -217s214 -320 214 -526c0 -208.667 -71 -385.167 -213 -529.5s-315.333 -216.5 -520 -216.5c-200.667 0 -371.334 72.5 -512.001 217.5s-211 321.167 -211 528.5z
M205.002 721c0 -178.667 58 -329.167 174 -451.5s258.667 -183.5 428 -183.5c173.333 0 319 61.167 437 183.5s177 272.833 177 451.5c0 177.333 -59 327.166 -177 449.499s-263.667 183.5 -437 183.5c-169.333 0 -312 -61.167 -428 -183.5s-174 -272.166 -174 -449.499z
M406.002 717c0 114.667 38.1699 213.669 114.503 297.002s178.5 125 306.5 125c42 0 82.333 -6.5 121 -19.5s70.167 -28.833 94.5 -47.5s46.166 -37.5 65.499 -56.5s33 -35.167 41 -48.5l12 -19l-94 -63l-10 15c-4 6 -13.5 17.167 -28.5 33.5s-31.167 30.666 -48.5 42.999
s-39.333 23.666 -66 33.999s-54.334 15.5 -83.001 15.5c-94 0 -168.333 -30 -223 -90s-82 -132.333 -82 -217s27 -157 81 -217s128.667 -90 224 -90c90 0 165.333 42.333 226 127l10 14l94 -64c-2.66699 -5.33301 -7 -12 -13 -20s-19.333 -23 -40 -45
s-42.834 -41.5 -66.501 -58.5s-54.667 -32.333 -93 -46s-78.833 -20.5 -121.5 -20.5c-130 0 -232.667 41.333 -308 124s-113 180.667 -113 294z" />
    <glyph glyph-name="ordfeminine" unicode="&#xaa;" horiz-adv-x="847" 
d="M348 782c-61.333 0 -114.167 17.8311 -158.5 53.498s-66.5 83.5 -66.5 143.5c0 150 129.667 225 389 225h27c-1.33301 57.333 -13 98 -35 122s-59 36 -111 36c-70.667 0 -106 -13.667 -106 -41v-49h-109v80c0 27.333 15 49.833 45 67.5s59.667 28.834 89 33.501
s57 7 83 7c95.333 0 161.833 -22.167 199.5 -66.5s56.5 -106.166 56.5 -185.499v-290c0 -12 6.33301 -18.333 19 -19h59v-104h-96c-56 0 -84.667 26.333 -86 79v25h-4c-4 -8 -10.167 -18.5 -18.5 -31.5s-29.333 -30.5 -63 -52.5s-71.5 -33 -113.5 -33zM361.999 880.998
c53.333 0 95.832 22.833 127.499 68.5s48.834 100.5 51.501 164.5h-25c-184 0 -276 -43 -276 -129c0 -28.667 10.833 -53.167 32.5 -73.5s51.5 -30.5 89.5 -30.5zM118.998 540.998v96h620v-96h-620z" />
    <glyph glyph-name="guillemotleft" unicode="&#xab;" horiz-adv-x="1069" 
d="M444 578l336 421h152l-336 -421l336 -420h-152zM414 158l-336 420l336 421h149l-336 -421l336 -420h-149z" />
    <glyph glyph-name="logicalnot" unicode="&#xac;" 
d="M143 700v119h955v-495h-125v376h-830z" />
    <glyph glyph-name="uni00AD" unicode="&#xad;" horiz-adv-x="884" 
d="M152 518v127h581v-127h-581z" />
    <glyph glyph-name="registered" unicode="&#xae;" horiz-adv-x="1624" 
d="M84 721c0 206 70.6689 381.333 212.002 526s311.666 217 510.999 217c203.333 0 376.333 -72.333 519 -217s214 -320 214 -526c0 -208.667 -71 -385.167 -213 -529.5s-315.333 -216.5 -520 -216.5c-200.667 0 -371.334 72.5 -512.001 217.5s-211 321.167 -211 528.5z
M205.002 721c0 -178.667 58 -329.167 174 -451.5s258.667 -183.5 428 -183.5c173.333 0 319 61.167 437 183.5s177 272.833 177 451.5c0 177.333 -59 327.166 -177 449.499s-263.667 183.5 -437 183.5c-169.333 0 -312 -61.167 -428 -183.5s-174 -272.166 -174 -449.499z
M565.002 322v702h-73v96h358c70.667 0 128.334 -21.833 173.001 -65.5s67 -100.834 67 -171.501c0 -56 -14.833 -102.833 -44.5 -140.5s-64.834 -61.167 -105.501 -70.5v-4c15.333 -5.33301 29 -19.666 41 -42.999l92 -185c8 -18 26.333 -26.667 55 -26h21v-92h-59
c-31.333 0 -55 3.66699 -71 11s-30.667 24 -44 50l-111 217c-16.667 30 -41 45 -73 45h-111v-323h-115zM680.002 735l149 0.000976562c44 0 78.667 13 104 39s38 62.333 38 109c0 45.333 -12.667 80.166 -38 104.499s-60 36.5 -104 36.5h-149v-289z" />
    <glyph glyph-name="uni02C9" unicode="&#xaf;" horiz-adv-x="944" 
d="M229 1608v110h504v-110h-504z" />
    <glyph glyph-name="uni02C9" unicode="&#x2c9;" horiz-adv-x="944" 
d="M229 1608v110h504v-110h-504z" />
    <glyph glyph-name="degree" unicode="&#xb0;" horiz-adv-x="784" 
d="M391 893c-79.333 0 -147 27.667 -203 83s-84 122.666 -84 201.999c0 78 28 144.833 84 200.5s123.667 83.5 203 83.5s147.333 -28 204 -84s85 -122.667 85 -200c0 -79.333 -28 -146.666 -84 -201.999s-124.333 -83 -205 -83zM391.5 1008c46.333 0 85.833 16.333 118.5 49
s49 73 49 121c0 46.667 -16.333 86.667 -49 120s-72.167 50 -118.5 50s-85.333 -16.833 -117 -50.5s-47.5 -73.5 -47.5 -119.5c0 -48 15.833 -88.333 47.5 -121s70.667 -49 117 -49z" />
    <glyph glyph-name="plusminus" unicode="&#xb1;" 
d="M86 522v119h473v522h125v-522h471v-119h-471v-522h-125v522h-473zM123 -213h995v-119h-995v119z" />
    <glyph glyph-name="uni00B2" unicode="&#xb2;" horiz-adv-x="837" 
d="M197 543c-34 0 -58.002 7.49707 -72.002 22.4971s-21 41.5 -21 79.5c0 42 6.83301 79.833 20.5 113.5s35.167 64.167 64.5 91.5s55 48.166 77 62.499s54 33.833 96 58.5c44 24.667 77.667 44.834 101 60.501s45.833 38.5 67.5 68.5s32.5 62.667 32.5 98
c0 42 -14.667 77.167 -44 105.5s-68.666 42.5 -117.999 42.5c-38 0 -70.667 -8.33301 -98 -25s-41 -35.667 -41 -57v-54h-110v80c0 53.333 27.5 94.333 82.5 123s110.5 43 166.5 43c87.333 0 156 -24.167 206 -72.5s75 -110.166 75 -185.499
c0 -40.667 -6.83301 -77.167 -20.5 -109.5s-36.5 -62.166 -68.5 -89.499s-57.667 -47 -77 -59s-51.5 -31 -96.5 -57s-78.333 -46.5 -100 -61.5s-43.5 -37.167 -65.5 -66.5s-33 -60.333 -33 -93c0 -8 6.33301 -12.333 19 -13h358c8 0 12 5 12 15v71h111v-102
c0 -31.333 -7.16699 -54.166 -21.5 -68.499s-37.166 -21.5 -68.499 -21.5h-434z" />
    <glyph glyph-name="uni00B3" unicode="&#xb3;" horiz-adv-x="837" 
d="M406 526c-53.333 0 -105.333 12.332 -156 36.999s-87.667 49.334 -111 74.001l-37 37l82 80c6.66699 -8 16.5 -18.667 29.5 -32s39 -30.833 78 -52.5s77.833 -32.5 116.5 -32.5c48 0 90 16.667 126 50s54 75.333 54 126s-18.833 91 -56.5 121s-83.167 45 -136.5 45h-71
l-21 70l197 239l47 49v4c-23.333 -4 -48 -6 -74 -6h-194c-13.333 0 -20.333 -7.33301 -21 -22v-58h-111v88c0 35.333 6.83301 60.333 20.5 75s39.167 22 76.5 22h452v-80l-241 -283c64 -5.33301 122 -31.5 174 -78.5s78 -109.5 78 -187.5c0 -82 -29.667 -150 -89 -204
s-130 -81 -212 -81z" />
    <glyph glyph-name="acute" unicode="&#xb4;" horiz-adv-x="759" 
d="M236 1540l143 244h156l-179 -244h-120z" />
    <glyph glyph-name="mu" unicode="&#xb5;" horiz-adv-x="1234" 
d="M43 909l0.00195312 121.002h145c44 0 75.833 -9.5 95.5 -28.5s29.5 -49.833 29.5 -92.5v-497c0 -96.667 15 -171.834 45 -225.501s90.333 -80.5 181 -80.5c112 0 203.167 42.667 273.5 128s105.5 186.333 105.5 303v493h139v-864c0 -30 15 -45 45 -45h86v-121h-141
c-83.333 0 -125 38.333 -125 115v47l4 74h-6c-2.66699 -6.66699 -6.83398 -16 -12.501 -28s-19.834 -33 -42.501 -63s-47.5 -56.5 -74.5 -79.5s-64.833 -43.833 -113.5 -62.5s-101 -28 -157 -28c-50.667 0 -95 7.16699 -133 21.5s-63.333 29.166 -76 44.499l-18 20h-4
c9.33301 -69.333 14 -121 14 -155v-316h-129v1274c0 30 -15 45 -45 45h-86z" />
    <glyph glyph-name="mu" unicode="&#x3bc;" horiz-adv-x="1234" 
d="M43 909l0.00195312 121.002h145c44 0 75.833 -9.5 95.5 -28.5s29.5 -49.833 29.5 -92.5v-497c0 -96.667 15 -171.834 45 -225.501s90.333 -80.5 181 -80.5c112 0 203.167 42.667 273.5 128s105.5 186.333 105.5 303v493h139v-864c0 -30 15 -45 45 -45h86v-121h-141
c-83.333 0 -125 38.333 -125 115v47l4 74h-6c-2.66699 -6.66699 -6.83398 -16 -12.501 -28s-19.834 -33 -42.501 -63s-47.5 -56.5 -74.5 -79.5s-64.833 -43.833 -113.5 -62.5s-101 -28 -157 -28c-50.667 0 -95 7.16699 -133 21.5s-63.333 29.166 -76 44.499l-18 20h-4
c9.33301 -69.333 14 -121 14 -155v-316h-129v1274c0 30 -15 45 -45 45h-86z" />
    <glyph glyph-name="paragraph" unicode="&#xb6;" horiz-adv-x="1175" 
d="M578 -102v596c-134 0 -249.167 46 -345.5 138s-144.5 204.167 -144.5 336.5s47.833 244 143.5 335s210.167 136.5 343.5 136.5h490v-127h-371v-1415h-116zM821 -102v1292h119v-1292h-119z" />
    <glyph glyph-name="uni2219" unicode="&#xb7;" horiz-adv-x="440" 
d="M141 508v164h158v-164h-158z" />
    <glyph glyph-name="uni2219" unicode="&#x2219;" horiz-adv-x="440" 
d="M141 508v164h158v-164h-158z" />
    <glyph glyph-name="cedilla" unicode="&#xb8;" horiz-adv-x="845" 
d="M324 41l82.001 -14v-17l-25 -123c44 -6.66699 79.167 -22.667 105.5 -48s39.5 -57.666 39.5 -96.999c0 -54.667 -19 -95.334 -57 -122.001s-85 -40 -141 -40l-101 10v99c26 -8 54.667 -12.333 86 -13c69.333 0 104.166 23.333 104.499 70s-38.5 70 -116.5 70l-31 -2z" />
    <glyph glyph-name="uni00B9" unicode="&#xb9;" horiz-adv-x="837" 
d="M164 543l0.000976562 105.999h192v563l2 70h-4c-6.66699 -13.333 -15.334 -25.666 -26.001 -36.999l-92 -90l-74 76l209 209h104v-791h191v-106h-502z" />
    <glyph glyph-name="ordmasculine" unicode="&#xba;" horiz-adv-x="933" 
d="M467 784c-95.333 0 -176.168 32.834 -242.501 98.501s-99.5 146.834 -99.5 243.501c0 94 33.5 173.5 100.5 238.5s147.5 97.5 241.5 97.5s174.5 -32.333 241.5 -97s100.5 -144.334 100.5 -239.001c0 -96.667 -33.167 -177.834 -99.5 -243.501
s-147.166 -98.5 -242.499 -98.5zM466.998 889.001c64 0 118.167 22.498 162.5 67.498s66.5 101.5 66.5 169.5c0 66.667 -22.167 122.334 -66.5 167.001s-98.5 67 -162.5 67s-118.167 -22.167 -162.5 -66.5s-66.5 -100.166 -66.5 -167.499c0 -68 22.167 -124.5 66.5 -169.5
s98.5 -67.5 162.5 -67.5zM159.998 540.999v96h620v-96h-620z" />
    <glyph glyph-name="guillemotright" unicode="&#xbb;" horiz-adv-x="1069" 
d="M504 158l336 420l-336 421h151l336 -421l-336 -420h-151zM135 158l336 420l-336 421h152l336 -421l-336 -420h-152z" />
    <glyph glyph-name="onequarter" unicode="&#xbc;" horiz-adv-x="1822" 
d="M551 0l608 1440h127l-606 -1440h-129zM160 543l0.000976562 105.999h192v563l2 70h-4c-6.66699 -13.333 -15.334 -25.666 -26.001 -36.999l-93 -90l-73 76l209 209h102v-791h188v-106h-497zM1016 239.999v75l426 582h123v-551h137v-106h-137v-240h-117v240h-432z
M1155 343.999c19.333 1.33301 33.667 1.99902 43 1.99902h252v313l2 80h-4c-9.33301 -19.333 -20.333 -37.666 -33 -54.999l-231 -305l-29 -33v-2z" />
    <glyph glyph-name="onehalf" unicode="&#xbd;" horiz-adv-x="1822" 
d="M528 0l609 1440h127l-607 -1440h-129zM160 543l0.000976562 105.999h192v563l2 70h-4c-6.66699 -13.333 -15.334 -25.666 -26.001 -36.999l-93 -90l-73 76l209 209h102v-791h188v-106h-497zM1063 101.999c0 42 6.83008 80.166 20.4971 114.499s35.167 64.833 64.5 91.5
s55.333 47.5 78 62.5s54.334 34.167 95.001 57.5c44 24.667 77.5 44.834 100.5 60.501s45.5 38.5 67.5 68.5s33 62.667 33 98c0 42 -14.667 77.167 -44 105.5s-68.666 42.5 -117.999 42.5c-38 0 -70.667 -8.16699 -98 -24.5s-41 -35.5 -41 -57.5v-51h-111v78
c0 54.667 27.667 95.834 83 123.501s111 41.5 167 41.5c87.333 0 155.833 -24.167 205.5 -72.5s74.5 -110.166 74.5 -185.499c0 -40.667 -6.83301 -77 -20.5 -109s-36.167 -61.333 -67.5 -88s-57.166 -46.834 -77.499 -60.501s-52.5 -32.834 -96.5 -57.501
c-32.667 -19.333 -57.5 -34.833 -74.5 -46.5s-36.833 -27 -59.5 -46s-38.667 -38.667 -48 -59s-14 -42.833 -14 -67.5c0 -9.33301 5.33301 -14.333 16 -15h358c8 0 12.333 5 13 15v72h110v-103c0 -60 -30 -90 -90 -90h-434c-34 0 -57.833 7.5 -71.5 22.5
s-20.5 41.5 -20.5 79.5z" />
    <glyph glyph-name="threequarters" unicode="&#xbe;" horiz-adv-x="1822" 
d="M549 0l608 1440h127l-606 -1440h-129zM430 526c-53.333 0 -105.171 12.332 -155.504 36.999s-87.166 49.334 -110.499 74.001l-37 37l82 80c6.66699 -8 16.5 -18.667 29.5 -32s39 -30.833 78 -52.5s77.5 -32.5 115.5 -32.5c48 0 90 16.667 126 50s54 75.333 54 126
s-18.667 91 -56 121s-82.666 45 -135.999 45h-72l-20 70l196 239l47 49v4c-23.333 -4 -47.666 -6 -72.999 -6h-195c-13.333 0 -20 -7.33301 -20 -22v-58h-111v88c0 35.333 6.83301 60.333 20.5 75s38.834 22 75.501 22h453v-80l-242 -283c64 -5.33301 122 -31.5 174 -78.5
s78 -109.5 78 -187.5c0 -82 -29.667 -150 -89 -204s-130 -81 -212 -81zM1016 239.999v75l426 582h123v-551h137v-106h-137v-240h-117v240h-432zM1155 343.999c19.333 1.33301 33.667 1.99902 43 1.99902h252v313l2 80h-4c-9.33301 -19.333 -20.333 -37.666 -33 -54.999
l-231 -305l-29 -33v-2z" />
    <glyph glyph-name="questiondown" unicode="&#xbf;" horiz-adv-x="882" 
d="M420 872v158h158v-158h-158zM63 -68c0 62.667 12.667 119 38 169s55.833 92.167 91.5 126.5s71.5 67.166 107.5 98.499s66.667 67.833 92 109.5s38 86.834 38 135.501v82h137v-88c0 -60 -12.167 -114.5 -36.5 -163.5s-54.166 -90.167 -89.499 -123.5l-104 -99
c-34.667 -32 -64.334 -68.5 -89.001 -109.5s-37 -84.5 -37 -130.5c0 -66.667 25.167 -122.667 75.5 -168s114.5 -68 192.5 -68c40.667 0 82 7.16699 124 21.5s73 28.5 93 42.5l31 22l76 -102c-9.33301 -8 -23 -18.667 -41 -32s-55.667 -30.833 -113 -52.5
s-116 -32.5 -176 -32.5c-117.333 0 -215 34 -293 102s-117 154.667 -117 260z" />
    <glyph glyph-name="Agrave" unicode="&#xc0;" horiz-adv-x="1345" 
d="M25 0v127h26c38 0 62.667 15 74 45l471 1268h154l471 -1268c10.667 -30 35 -45 73 -45h25v-127h-66c-52 0 -88.833 7.5 -110.5 22.5s-41.5 47.167 -59.5 96.5l-125 340h-571l-127 -340c-19.333 -49.333 -39.5 -81.5 -60.5 -96.5s-56.833 -22.5 -107.5 -22.5h-67zM426 584
h494.001l-191 514l-55 186h-4c-20.667 -79.333 -39.334 -141.333 -56.001 -186zM612.001 1540l-178 244h156l143 -244h-121z" />
    <glyph glyph-name="Aacute" unicode="&#xc1;" horiz-adv-x="1345" 
d="M25 0v127h26c38 0 62.667 15 74 45l471 1268h154l471 -1268c10.667 -30 35 -45 73 -45h25v-127h-66c-52 0 -88.833 7.5 -110.5 22.5s-41.5 47.167 -59.5 96.5l-125 340h-571l-127 -340c-19.333 -49.333 -39.5 -81.5 -60.5 -96.5s-56.833 -22.5 -107.5 -22.5h-67zM426 584
h494.001l-191 514l-55 186h-4c-20.667 -79.333 -39.334 -141.333 -56.001 -186zM612.001 1540l144 244h155l-178 -244h-121z" />
    <glyph glyph-name="Acircumflex" unicode="&#xc2;" horiz-adv-x="1345" 
d="M25 0v127h26c38 0 62.667 15 74 45l471 1268h154l471 -1268c10.667 -30 35 -45 73 -45h25v-127h-66c-52 0 -88.833 7.5 -110.5 22.5s-41.5 47.167 -59.5 96.5l-125 340h-571l-127 -340c-19.333 -49.333 -39.5 -81.5 -60.5 -96.5s-56.833 -22.5 -107.5 -22.5h-67zM426 584
h494.001l-191 514l-55 186h-4c-20.667 -79.333 -39.334 -141.333 -56.001 -186zM432.001 1540l170 244h143l170 -244h-129l-110 166h-4l-111 -166h-129z" />
    <glyph glyph-name="Atilde" unicode="&#xc3;" horiz-adv-x="1345" 
d="M25 0v127h26c38 0 62.667 15 74 45l471 1268h154l471 -1268c10.667 -30 35 -45 73 -45h25v-127h-66c-52 0 -88.833 7.5 -110.5 22.5s-41.5 47.167 -59.5 96.5l-125 340h-571l-127 -340c-19.333 -49.333 -39.5 -81.5 -60.5 -96.5s-56.833 -22.5 -107.5 -22.5h-67zM426 584
h494.001l-191 514l-55 186h-4c-20.667 -79.333 -39.334 -141.333 -56.001 -186zM350.001 1546c0 160 63.666 240.001 190.999 240.001c39.333 0 73.666 -12.333 102.999 -37s56.333 -49.334 81 -74.001s49.334 -37 74.001 -37c54.667 0 82 47.333 82 142h108
c0 -160 -63.333 -240 -190 -240c-39.333 0 -74.166 12.333 -104.499 37s-57.333 49 -81 73s-48.5 36 -74.5 36c-54.667 0 -82 -46.667 -82 -140h-107z" />
    <glyph glyph-name="Adieresis" unicode="&#xc4;" horiz-adv-x="1345" 
d="M25 0v127h26c38 0 62.667 15 74 45l471 1268h154l471 -1268c10.667 -30 35 -45 73 -45h25v-127h-66c-52 0 -88.833 7.5 -110.5 22.5s-41.5 47.167 -59.5 96.5l-125 340h-571l-127 -340c-19.333 -49.333 -39.5 -81.5 -60.5 -96.5s-56.833 -22.5 -107.5 -22.5h-67zM426 584
h494.001l-191 514l-55 186h-4c-20.667 -79.333 -39.334 -141.333 -56.001 -186zM768.001 1608v176h121v-176h-121zM461.001 1608v176h121v-176h-121z" />
    <glyph glyph-name="Aring" unicode="&#xc5;" horiz-adv-x="1345" 
d="M25 0v127h26c38 0 62.667 15 74 45l471 1268h154l471 -1268c10.667 -30 35 -45 73 -45h25v-127h-66c-52 0 -88.833 7.5 -110.5 22.5s-41.5 47.167 -59.5 96.5l-125 340h-571l-127 -340c-19.333 -49.333 -39.5 -81.5 -60.5 -96.5s-56.833 -22.5 -107.5 -22.5h-67zM426 584
h494.001l-191 514l-55 186h-4c-20.667 -79.333 -39.334 -141.333 -56.001 -186zM673.501 1518c-42.333 0 -78.166 13.5 -107.499 40.5s-44 61.667 -44 104s14.667 77.166 44 104.499s65.166 41 107.499 41s78.166 -13.667 107.499 -41s44 -62.166 44 -104.499
s-14.667 -77 -44 -104s-65.166 -40.5 -107.499 -40.5zM674.001 1595c19.333 0 35.333 6.5 48 19.5s19 29.167 19 48.5c0 20.667 -6.5 37.5 -19.5 50.5s-29 19.5 -48 19.5s-35 -6.5 -48 -19.5s-19.5 -29.833 -19.5 -50.5c0 -19.333 6.16699 -35.5 18.5 -48.5
s28.833 -19.5 49.5 -19.5z" />
    <glyph glyph-name="AE" unicode="&#xc6;" horiz-adv-x="1685" 
d="M25 0l-0.00195312 127h18c38 0 62.667 15 74 45l487 1268h848c44 0 75.833 -10 95.5 -30s29.5 -51.667 29.5 -95v-144h-135v97c0 30 -15 45 -45 45h-475v-525h524v-126h-524v-490c0 -18 4.33301 -30 13 -36s23.334 -9 44.001 -9h477c30 0 45 15 45 45v96h135v-143
c0 -44 -9.83301 -75.833 -29.5 -95.5s-51.5 -29.5 -95.5 -29.5h-589c-53.333 0 -90.666 8.5 -111.999 25.5s-32 50.167 -32 99.5v537h-325l-205 -543c-18 -49.333 -37.5 -81.5 -58.5 -96.5s-57.5 -22.5 -109.5 -22.5h-55zM499.998 788h278v525h-82z" />
    <glyph glyph-name="Ccedilla" unicode="&#xc7;" horiz-adv-x="1421" 
d="M78 731c0 207.333 67.8301 381.33 203.497 521.997s304.5 211 506.5 211c54.667 0 111.834 -5.66699 171.501 -17s117.834 -28.666 174.501 -51.999s103 -55.5 139 -96.5s54 -87.5 54 -139.5v-119h-135v80c0 62.667 -43 113.167 -129 151.5s-176 57.5 -270 57.5
c-161.333 0 -296 -56.333 -404 -169s-162 -255.667 -162 -429s53.667 -320 161 -440s242.333 -180 405 -180c56 0 110.167 6.83301 162.5 20.5s97 30.334 134 50.001s69.5 39.334 97.5 59.001s48.667 36.5 62 50.5l21 20l82 -102l-24 -24c-10 -10 -32.5 -28.333 -67.5 -55
s-71.833 -49.834 -110.5 -69.501s-89.167 -38.5 -151.5 -56.5s-126.166 -27.667 -191.499 -29l-19 -88c44 -6.66699 79 -22.667 105 -48s39 -57.666 39 -96.999c0 -56 -18.833 -97 -56.5 -123s-84.5 -39 -140.5 -39l-100 10v99c26 -8 54.667 -12.333 86 -13
c68 0 102 23.333 102 70s-38.667 70 -116 70l-29 -2l39 166c-190 18 -344 97.5 -462 238.5s-177 311.833 -177 512.5z" />
    <glyph glyph-name="Egrave" unicode="&#xc8;" horiz-adv-x="1142" 
d="M219 125v1188h-133v127h823c44 0 75.833 -10 95.5 -30s29.5 -51.667 29.5 -95v-144h-135v97c0 30 -15 45 -45 45h-492v-525h541v-126h-541v-490c0 -30 15.333 -45 46 -45h505c30 0 45 15 45 45v96h134v-143c0 -44 -10 -75.833 -30 -95.5s-51.667 -29.5 -95 -29.5h-623
c-44 -0 -75.833 9.83301 -95.5 29.5s-29.5 51.5 -29.5 95.5zM541 1540l-179 244h156l144 -244h-121z" />
    <glyph glyph-name="Eacute" unicode="&#xc9;" horiz-adv-x="1142" 
d="M219 125v1188h-133v127h823c44 0 75.833 -10 95.5 -30s29.5 -51.667 29.5 -95v-144h-135v97c0 30 -15 45 -45 45h-492v-525h541v-126h-541v-490c0 -30 15.333 -45 46 -45h505c30 0 45 15 45 45v96h134v-143c0 -44 -10 -75.833 -30 -95.5s-51.667 -29.5 -95 -29.5h-623
c-44 -0 -75.833 9.83301 -95.5 29.5s-29.5 51.5 -29.5 95.5zM541 1540l143 244h156l-178 -244h-121z" />
    <glyph glyph-name="Ecircumflex" unicode="&#xca;" horiz-adv-x="1142" 
d="M219 125v1188h-133v127h823c44 0 75.833 -10 95.5 -30s29.5 -51.667 29.5 -95v-144h-135v97c0 30 -15 45 -45 45h-492v-525h541v-126h-541v-490c0 -30 15.333 -45 46 -45h505c30 0 45 15 45 45v96h134v-143c0 -44 -10 -75.833 -30 -95.5s-51.667 -29.5 -95 -29.5h-623
c-44 -0 -75.833 9.83301 -95.5 29.5s-29.5 51.5 -29.5 95.5zM360 1540l170 244h144l170 -244h-129l-111 166h-4l-111 -166h-129z" />
    <glyph glyph-name="Edieresis" unicode="&#xcb;" horiz-adv-x="1142" 
d="M219 125v1188h-133v127h823c44 0 75.833 -10 95.5 -30s29.5 -51.667 29.5 -95v-144h-135v97c0 30 -15 45 -45 45h-492v-525h541v-126h-541v-490c0 -30 15.333 -45 46 -45h505c30 0 45 15 45 45v96h134v-143c0 -44 -10 -75.833 -30 -95.5s-51.667 -29.5 -95 -29.5h-623
c-44 -0 -75.833 9.83301 -95.5 29.5s-29.5 51.5 -29.5 95.5zM696 1608v176h121v-176h-121zM389 1608v176h121v-176h-121z" />
    <glyph glyph-name="Igrave" unicode="&#xcc;" horiz-adv-x="600" 
d="M94 0v127h135v1186h-135v127h412v-127h-137v-1186h137v-127h-412zM238 1540l-179 244h156l143 -244h-120z" />
    <glyph glyph-name="Iacute" unicode="&#xcd;" horiz-adv-x="600" 
d="M94 0v127h135v1186h-135v127h412v-127h-137v-1186h137v-127h-412zM238 1540l143 244h156l-179 -244h-120z" />
    <glyph glyph-name="Icircumflex" unicode="&#xce;" horiz-adv-x="600" 
d="M94 0v127h135v1186h-135v127h412v-127h-137v-1186h137v-127h-412zM57 1540l170 244h144l170 -244h-129l-111 166h-4l-111 -166h-129z" />
    <glyph glyph-name="Idieresis" unicode="&#xcf;" horiz-adv-x="600" 
d="M94 0v127h135v1186h-135v127h412v-127h-137v-1186h137v-127h-412zM393 1608v176h121v-176h-121zM86 1608v176h121v-176h-121z" />
    <glyph glyph-name="Eth" unicode="&#xd0;" horiz-adv-x="1464" 
d="M219 125v537h-102v122h102v529h-133v127h578c220 0 395.333 -63.833 526 -191.5s196 -303.5 196 -527.5c0 -226.667 -65.5 -403.5 -196.5 -530.5s-306.167 -190.5 -525.5 -190.5h-320c-44 -0 -75.833 9.83301 -95.5 29.5s-29.5 51.5 -29.5 95.5zM362 172
c0 -30 15.334 -45 46.001 -45h241c180 0 323 51.5 429 154.5s159 249.5 159 439.5c0 188.667 -52.833 334.5 -158.5 437.5s-248.834 154.5 -429.501 154.5h-287v-529h336v-122h-336v-490z" />
    <glyph glyph-name="Ntilde" unicode="&#xd1;" horiz-adv-x="1556" 
d="M86 0v127h88c30 0 45 15 45 45v1268h131l735 -1026l117 -189h4c-6.66699 75.333 -10 138.333 -10 189v901c0 44 9.83301 75.833 29.5 95.5s51.5 29.5 95.5 29.5h152v-127h-89c-30 0 -45 -15 -45 -45v-1268h-131l-735 1026l-119 186h-4c8 -74 12 -136 12 -186v-901
c0 -44 -9.83301 -75.833 -29.5 -95.5s-51.167 -29.5 -94.5 -29.5h-152zM477 1546c0 160 63.666 240.001 190.999 240.001c39.333 0 73.666 -12.333 102.999 -37s56.333 -49.334 81 -74.001s49.334 -37 74.001 -37c54.667 0 82 47.333 82 142h108
c0 -160 -63.333 -240 -190 -240c-39.333 0 -74.166 12.333 -104.499 37s-57.333 49 -81 73s-48.5 36 -74.5 36c-54.667 0 -82 -46.667 -82 -140h-107z" />
    <glyph glyph-name="Ograve" unicode="&#xd2;" horiz-adv-x="1619" 
d="M78 729c0 206 71 380 213 522s315.333 213 520 213s378 -71 520 -213s213 -316 213 -522c0 -210 -71.333 -388.167 -214 -534.5s-315.667 -219.5 -519 -219.5c-204.667 0 -378 73.167 -520 219.5s-213 324.5 -213 534.5zM227 729
c0 -173.333 56.667 -319.666 170 -438.999s251.333 -179 414 -179c161.333 0 299 59.667 413 179s171 265.666 171 438.999c0 169.333 -56.667 311.666 -170 426.999s-251.333 173 -414 173s-300.667 -57.667 -414 -173s-170 -257.666 -170 -426.999zM743 1540l-178 244h156
l143 -244h-121z" />
    <glyph glyph-name="Oacute" unicode="&#xd3;" horiz-adv-x="1619" 
d="M78 729c0 206 71 380 213 522s315.333 213 520 213s378 -71 520 -213s213 -316 213 -522c0 -210 -71.333 -388.167 -214 -534.5s-315.667 -219.5 -519 -219.5c-204.667 0 -378 73.167 -520 219.5s-213 324.5 -213 534.5zM227 729
c0 -173.333 56.667 -319.666 170 -438.999s251.333 -179 414 -179c161.333 0 299 59.667 413 179s171 265.666 171 438.999c0 169.333 -56.667 311.666 -170 426.999s-251.333 173 -414 173s-300.667 -57.667 -414 -173s-170 -257.666 -170 -426.999zM743 1540l144 244h155
l-178 -244h-121z" />
    <glyph glyph-name="Ocircumflex" unicode="&#xd4;" horiz-adv-x="1619" 
d="M78 729c0 206 71 380 213 522s315.333 213 520 213s378 -71 520 -213s213 -316 213 -522c0 -210 -71.333 -388.167 -214 -534.5s-315.667 -219.5 -519 -219.5c-204.667 0 -378 73.167 -520 219.5s-213 324.5 -213 534.5zM227 729
c0 -173.333 56.667 -319.666 170 -438.999s251.333 -179 414 -179c161.333 0 299 59.667 413 179s171 265.666 171 438.999c0 169.333 -56.667 311.666 -170 426.999s-251.333 173 -414 173s-300.667 -57.667 -414 -173s-170 -257.666 -170 -426.999zM563 1540l170 244h144
l170 -244h-129l-111 166h-4l-111 -166h-129z" />
    <glyph glyph-name="Otilde" unicode="&#xd5;" horiz-adv-x="1619" 
d="M78 729c0 206 71 380 213 522s315.333 213 520 213s378 -71 520 -213s213 -316 213 -522c0 -210 -71.333 -388.167 -214 -534.5s-315.667 -219.5 -519 -219.5c-204.667 0 -378 73.167 -520 219.5s-213 324.5 -213 534.5zM227 729
c0 -173.333 56.667 -319.666 170 -438.999s251.333 -179 414 -179c161.333 0 299 59.667 413 179s171 265.666 171 438.999c0 169.333 -56.667 311.666 -170 426.999s-251.333 173 -414 173s-300.667 -57.667 -414 -173s-170 -257.666 -170 -426.999zM481 1546
c0 160 63.666 240.001 190.999 240.001c39.333 0 73.666 -12.333 102.999 -37s56.333 -49.334 81 -74.001s49.334 -37 74.001 -37c54.667 0 82 47.333 82 142h108c0 -160 -63.333 -240 -190 -240c-39.333 0 -74.166 12.333 -104.499 37s-57.333 49 -81 73s-48.5 36 -74.5 36
c-54.667 0 -82 -46.667 -82 -140h-107z" />
    <glyph glyph-name="Odieresis" unicode="&#xd6;" horiz-adv-x="1619" 
d="M78 729c0 206 71 380 213 522s315.333 213 520 213s378 -71 520 -213s213 -316 213 -522c0 -210 -71.333 -388.167 -214 -534.5s-315.667 -219.5 -519 -219.5c-204.667 0 -378 73.167 -520 219.5s-213 324.5 -213 534.5zM227 729
c0 -173.333 56.667 -319.666 170 -438.999s251.333 -179 414 -179c161.333 0 299 59.667 413 179s171 265.666 171 438.999c0 169.333 -56.667 311.666 -170 426.999s-251.333 173 -414 173s-300.667 -57.667 -414 -173s-170 -257.666 -170 -426.999zM899 1608v176h121v-176
h-121zM592 1608v176h121v-176h-121z" />
    <glyph glyph-name="multiply" unicode="&#xd7;" 
d="M98 84l443 498l-443 497l84 84l439 -493l438 493l84 -84l-445 -497l445 -498l-84 -84l-438 494l-439 -494z" />
    <glyph glyph-name="Oslash" unicode="&#xd8;" horiz-adv-x="1626" 
d="M238 10l100 142.001c-80.667 69.333 -143.834 154.166 -189.501 254.499s-68.5 207.833 -68.5 322.5c0 206 71 380 213 522s315.333 213 520 213c139.333 0 268.333 -36.667 387 -110l98 137l84 -61l-96 -136c173.333 -148.667 260 -337 260 -565
c0 -210 -71.333 -388.167 -214 -534.5s-315.667 -219.5 -519 -219.5c-143.333 0 -273.666 38.333 -390.999 115l-98 -139zM424 268.001l695.999 973c-95.333 58.667 -197.666 88 -306.999 88c-162.667 0 -300.667 -57.667 -414 -173s-170 -257.666 -170 -426.999
c0 -188.667 65 -342.334 195 -461.001zM503.999 203.001c96.667 -61.333 199.667 -91.999 309 -91.999c162.667 0 300.667 59.667 414 179s170 265.666 170 438.999c0 181.333 -65.667 330.333 -197 447z" />
    <glyph glyph-name="Ugrave" unicode="&#xd9;" horiz-adv-x="1468" 
d="M203 494v774.001c0 30 -15 45 -45 45h-88v127h151c44 0 75.833 -10 95.5 -30s29.5 -51.667 29.5 -95v-815c0 -120 35.167 -214.833 105.5 -284.5s164.166 -104.5 281.499 -104.5c118.667 0 213.167 35.167 283.5 105.5s105.5 166.166 105.5 287.499v811
c0 44 10 75.833 30 95.5s51.667 29.5 95 29.5h152v-127h-88c-30 0 -45 -15 -45 -45v-774c0 -155.333 -48.833 -280.666 -146.5 -375.999s-225.667 -143 -384 -143s-286.666 47.667 -384.999 143s-147.5 220.666 -147.5 375.999zM676 1540l-178 244h155l144 -244h-121z" />
    <glyph glyph-name="Uacute" unicode="&#xda;" horiz-adv-x="1468" 
d="M203 494v774.001c0 30 -15 45 -45 45h-88v127h151c44 0 75.833 -10 95.5 -30s29.5 -51.667 29.5 -95v-815c0 -120 35.167 -214.833 105.5 -284.5s164.166 -104.5 281.499 -104.5c118.667 0 213.167 35.167 283.5 105.5s105.5 166.166 105.5 287.499v811
c0 44 10 75.833 30 95.5s51.667 29.5 95 29.5h152v-127h-88c-30 0 -45 -15 -45 -45v-774c0 -155.333 -48.833 -280.666 -146.5 -375.999s-225.667 -143 -384 -143s-286.666 47.667 -384.999 143s-147.5 220.666 -147.5 375.999zM676 1540l143 244h156l-178 -244h-121z" />
    <glyph glyph-name="Ucircumflex" unicode="&#xdb;" horiz-adv-x="1468" 
d="M203 494v774.001c0 30 -15 45 -45 45h-88v127h151c44 0 75.833 -10 95.5 -30s29.5 -51.667 29.5 -95v-815c0 -120 35.167 -214.833 105.5 -284.5s164.166 -104.5 281.499 -104.5c118.667 0 213.167 35.167 283.5 105.5s105.5 166.166 105.5 287.499v811
c0 44 10 75.833 30 95.5s51.667 29.5 95 29.5h152v-127h-88c-30 0 -45 -15 -45 -45v-774c0 -155.333 -48.833 -280.666 -146.5 -375.999s-225.667 -143 -384 -143s-286.666 47.667 -384.999 143s-147.5 220.666 -147.5 375.999zM496 1540l170 244h143l170 -244h-129
l-111 166h-4l-110 -166h-129z" />
    <glyph glyph-name="Udieresis" unicode="&#xdc;" horiz-adv-x="1468" 
d="M203 494v774.001c0 30 -15 45 -45 45h-88v127h151c44 0 75.833 -10 95.5 -30s29.5 -51.667 29.5 -95v-815c0 -120 35.167 -214.833 105.5 -284.5s164.166 -104.5 281.499 -104.5c118.667 0 213.167 35.167 283.5 105.5s105.5 166.166 105.5 287.499v811
c0 44 10 75.833 30 95.5s51.667 29.5 95 29.5h152v-127h-88c-30 0 -45 -15 -45 -45v-774c0 -155.333 -48.833 -280.666 -146.5 -375.999s-225.667 -143 -384 -143s-286.666 47.667 -384.999 143s-147.5 220.666 -147.5 375.999zM831 1608v176h121v-176h-121zM524 1608v176
h121v-176h-121z" />
    <glyph glyph-name="Yacute" unicode="&#xdd;" horiz-adv-x="1212" 
d="M535 0v627l-385 633c-22 35.333 -54.333 53 -97 53h-33v127h56c50.667 0 88.5 -6.83301 113.5 -20.5s52.5 -45.167 82.5 -94.5l244 -407l88 -162h4c28.667 57.333 58 111.333 88 162l244 407c30 49.333 57.667 80.833 83 94.5s63.333 20.5 114 20.5h55v-127h-33
c-42 0 -73.333 -17.667 -94 -53l-387 -633v-627h-143zM547 1540l143 244h156l-178 -244h-121z" />
    <glyph glyph-name="Thorn" unicode="&#xde;" horiz-adv-x="1196" 
d="M219 0v1268c0 30 -15 45 -45 45h-88v127h152c44 0 75.667 -10 95 -30s29 -51.667 29 -95v-131h332c130 0 236.667 -39.667 320 -119s125 -185 125 -317c0 -131.333 -42 -237.333 -126 -318s-191.667 -121 -323 -121h-328v-309h-143zM362 436h314.001
c95.333 0 171.666 27.667 228.999 83s86 131.5 86 228.5s-28.333 172.833 -85 227.5s-132.667 82 -228 82h-316v-621z" />
    <glyph glyph-name="germandbls" unicode="&#xdf;" horiz-adv-x="1142" 
d="M41 0l0.000976562 121h84c30 0 45 15 45 45v921c0 116 41 207.833 123 275.5s178.333 101.5 289 101.5c106.667 0 193 -30 259 -90s99 -131.667 99 -215c0 -45.333 -12 -88 -36 -128s-50 -71.667 -78 -95s-53.833 -49.666 -77.5 -78.999s-35.5 -57.666 -35.5 -84.999
c0 -32.667 20.833 -67.167 62.5 -103.5s87.334 -69.833 137.001 -100.5s95.334 -72.667 137.001 -126s62.5 -111.333 62.5 -174c0 -92.667 -32 -164.667 -96 -216s-142.667 -77 -236 -77c-118.667 0 -221.667 37 -309 111l-8 8l51 109c8 -8 19.5 -17.5 34.5 -28.5
s45.167 -26.167 90.5 -45.5s89 -29 131 -29c57.333 0 105.166 14.333 143.499 43s57.5 71.667 57.5 129c0 45.333 -20.833 89.166 -62.5 131.499s-87.834 78.166 -138.501 107.499s-96.834 66.833 -138.501 112.5s-62.5 93.834 -62.5 144.501c0 38 12 74.833 36 110.5
s50 65.5 78 89.5s54 52.667 78 86s36 67.666 36 102.999c0 48 -19.5 90 -58.5 126s-93.5 54 -163.5 54c-70.667 0 -132.667 -23.167 -186 -69.5s-80 -109.833 -80 -190.5v-952c0 -44 -9.83301 -75.833 -29.5 -95.5s-51.5 -29.5 -95.5 -29.5h-143z" />
    <glyph glyph-name="agrave" unicode="&#xe0;" horiz-adv-x="1083" 
d="M82 281c0 236 210.332 354 630.999 354h57v12c0 106.667 -20.5 181.834 -61.5 225.501s-109.167 65.5 -204.5 65.5c-42 0 -86 -6.83301 -132 -20.5s-69 -36.834 -69 -69.501v-66h-133v99c0 32.667 13 61.667 39 87s58.5 43.666 97.5 54.999s75.167 19.5 108.5 24.5
s63.666 7.5 90.999 7.5c151.333 0 256.333 -34.833 315 -104.5s88 -166.834 88 -291.501v-493c0 -30 15 -45 45 -45h86v-121h-141c-44 0 -75.5 9.83301 -94.5 29.5s-28.5 50.834 -28.5 93.501l2 76h-4c1.33301 0 -1.66699 -7.5 -9 -22.5s-19.666 -33.833 -36.999 -56.5
s-38.166 -45 -62.499 -67s-57.333 -40.5 -99 -55.5s-86.5 -22.5 -134.5 -22.5c-94 0 -175.833 26.833 -245.5 80.5s-104.5 128.834 -104.5 225.501zM224.999 289c0 -52 20.166 -97.501 60.499 -136.501s96.833 -58.5 169.5 -58.5c92.667 0 168.334 39.667 227.001 119
s88 167.333 88 264v47h-59c-36.667 0 -67.667 -0.666992 -93 -2s-59.5 -4 -102.5 -8s-79.333 -11.167 -109 -21.5s-59.5 -23.666 -89.5 -39.999s-52.833 -38.5 -68.5 -66.5s-23.5 -60.333 -23.5 -97zM470.998 1196l-178 244h156l143 -244h-121z" />
    <glyph glyph-name="aacute" unicode="&#xe1;" horiz-adv-x="1083" 
d="M82 281c0 236 210.332 354 630.999 354h57v12c0 106.667 -20.5 181.834 -61.5 225.501s-109.167 65.5 -204.5 65.5c-42 0 -86 -6.83301 -132 -20.5s-69 -36.834 -69 -69.501v-66h-133v99c0 32.667 13 61.667 39 87s58.5 43.666 97.5 54.999s75.167 19.5 108.5 24.5
s63.666 7.5 90.999 7.5c151.333 0 256.333 -34.833 315 -104.5s88 -166.834 88 -291.501v-493c0 -30 15 -45 45 -45h86v-121h-141c-44 0 -75.5 9.83301 -94.5 29.5s-28.5 50.834 -28.5 93.501l2 76h-4c1.33301 0 -1.66699 -7.5 -9 -22.5s-19.666 -33.833 -36.999 -56.5
s-38.166 -45 -62.499 -67s-57.333 -40.5 -99 -55.5s-86.5 -22.5 -134.5 -22.5c-94 0 -175.833 26.833 -245.5 80.5s-104.5 128.834 -104.5 225.501zM224.999 289c0 -52 20.166 -97.501 60.499 -136.501s96.833 -58.5 169.5 -58.5c92.667 0 168.334 39.667 227.001 119
s88 167.333 88 264v47h-59c-36.667 0 -67.667 -0.666992 -93 -2s-59.5 -4 -102.5 -8s-79.333 -11.167 -109 -21.5s-59.5 -23.666 -89.5 -39.999s-52.833 -38.5 -68.5 -66.5s-23.5 -60.333 -23.5 -97zM470.998 1196l143 244h156l-178 -244h-121z" />
    <glyph glyph-name="acircumflex" unicode="&#xe2;" horiz-adv-x="1083" 
d="M82 281c0 236 210.332 354 630.999 354h57v12c0 106.667 -20.5 181.834 -61.5 225.501s-109.167 65.5 -204.5 65.5c-42 0 -86 -6.83301 -132 -20.5s-69 -36.834 -69 -69.501v-66h-133v99c0 32.667 13 61.667 39 87s58.5 43.666 97.5 54.999s75.167 19.5 108.5 24.5
s63.666 7.5 90.999 7.5c151.333 0 256.333 -34.833 315 -104.5s88 -166.834 88 -291.501v-493c0 -30 15 -45 45 -45h86v-121h-141c-44 0 -75.5 9.83301 -94.5 29.5s-28.5 50.834 -28.5 93.501l2 76h-4c1.33301 0 -1.66699 -7.5 -9 -22.5s-19.666 -33.833 -36.999 -56.5
s-38.166 -45 -62.499 -67s-57.333 -40.5 -99 -55.5s-86.5 -22.5 -134.5 -22.5c-94 0 -175.833 26.833 -245.5 80.5s-104.5 128.834 -104.5 225.501zM224.999 289c0 -52 20.166 -97.501 60.499 -136.501s96.833 -58.5 169.5 -58.5c92.667 0 168.334 39.667 227.001 119
s88 167.333 88 264v47h-59c-36.667 0 -67.667 -0.666992 -93 -2s-59.5 -4 -102.5 -8s-79.333 -11.167 -109 -21.5s-59.5 -23.666 -89.5 -39.999s-52.833 -38.5 -68.5 -66.5s-23.5 -60.333 -23.5 -97zM290.998 1196l170 244h143l170 -244h-129l-110 166h-5l-110 -166h-129z
" />
    <glyph glyph-name="atilde" unicode="&#xe3;" horiz-adv-x="1083" 
d="M82 281c0 236 210.332 354 630.999 354h57v12c0 106.667 -20.5 181.834 -61.5 225.501s-109.167 65.5 -204.5 65.5c-42 0 -86 -6.83301 -132 -20.5s-69 -36.834 -69 -69.501v-66h-133v99c0 32.667 13 61.667 39 87s58.5 43.666 97.5 54.999s75.167 19.5 108.5 24.5
s63.666 7.5 90.999 7.5c151.333 0 256.333 -34.833 315 -104.5s88 -166.834 88 -291.501v-493c0 -30 15 -45 45 -45h86v-121h-141c-44 0 -75.5 9.83301 -94.5 29.5s-28.5 50.834 -28.5 93.501l2 76h-4c1.33301 0 -1.66699 -7.5 -9 -22.5s-19.666 -33.833 -36.999 -56.5
s-38.166 -45 -62.499 -67s-57.333 -40.5 -99 -55.5s-86.5 -22.5 -134.5 -22.5c-94 0 -175.833 26.833 -245.5 80.5s-104.5 128.834 -104.5 225.501zM224.999 289c0 -52 20.166 -97.501 60.499 -136.501s96.833 -58.5 169.5 -58.5c92.667 0 168.334 39.667 227.001 119
s88 167.333 88 264v47h-59c-36.667 0 -67.667 -0.666992 -93 -2s-59.5 -4 -102.5 -8s-79.333 -11.167 -109 -21.5s-59.5 -23.666 -89.5 -39.999s-52.833 -38.5 -68.5 -66.5s-23.5 -60.333 -23.5 -97zM208.998 1202c0 160 63.332 240 189.999 240
c39.333 0 73.833 -12.333 103.5 -37s56.834 -49.334 81.501 -74.001s49 -37 73 -37c54.667 0 82 47.333 82 142h109c0 -160 -63.667 -240 -191 -240c-39.333 0 -74 12.333 -104 37s-57 48.834 -81 72.501s-49 35.5 -75 35.5c-54.667 0 -82 -46.333 -82 -139h-106z" />
    <glyph glyph-name="adieresis" unicode="&#xe4;" horiz-adv-x="1083" 
d="M82 281c0 236 210.332 354 630.999 354h57v12c0 106.667 -20.5 181.834 -61.5 225.501s-109.167 65.5 -204.5 65.5c-42 0 -86 -6.83301 -132 -20.5s-69 -36.834 -69 -69.501v-66h-133v99c0 32.667 13 61.667 39 87s58.5 43.666 97.5 54.999s75.167 19.5 108.5 24.5
s63.666 7.5 90.999 7.5c151.333 0 256.333 -34.833 315 -104.5s88 -166.834 88 -291.501v-493c0 -30 15 -45 45 -45h86v-121h-141c-44 0 -75.5 9.83301 -94.5 29.5s-28.5 50.834 -28.5 93.501l2 76h-4c1.33301 0 -1.66699 -7.5 -9 -22.5s-19.666 -33.833 -36.999 -56.5
s-38.166 -45 -62.499 -67s-57.333 -40.5 -99 -55.5s-86.5 -22.5 -134.5 -22.5c-94 0 -175.833 26.833 -245.5 80.5s-104.5 128.834 -104.5 225.501zM224.999 289c0 -52 20.166 -97.501 60.499 -136.501s96.833 -58.5 169.5 -58.5c92.667 0 168.334 39.667 227.001 119
s88 167.333 88 264v47h-59c-36.667 0 -67.667 -0.666992 -93 -2s-59.5 -4 -102.5 -8s-79.333 -11.167 -109 -21.5s-59.5 -23.666 -89.5 -39.999s-52.833 -38.5 -68.5 -66.5s-23.5 -60.333 -23.5 -97zM626.998 1264v176h121v-176h-121zM318.998 1264v176h121v-176h-121z" />
    <glyph glyph-name="aring" unicode="&#xe5;" horiz-adv-x="1083" 
d="M82 281c0 236 210.332 354 630.999 354h57v12c0 106.667 -20.5 181.834 -61.5 225.501s-109.167 65.5 -204.5 65.5c-42 0 -86 -6.83301 -132 -20.5s-69 -36.834 -69 -69.501v-66h-133v99c0 32.667 13 61.667 39 87s58.5 43.666 97.5 54.999s75.167 19.5 108.5 24.5
s63.666 7.5 90.999 7.5c151.333 0 256.333 -34.833 315 -104.5s88 -166.834 88 -291.501v-493c0 -30 15 -45 45 -45h86v-121h-141c-44 0 -75.5 9.83301 -94.5 29.5s-28.5 50.834 -28.5 93.501l2 76h-4c1.33301 0 -1.66699 -7.5 -9 -22.5s-19.666 -33.833 -36.999 -56.5
s-38.166 -45 -62.499 -67s-57.333 -40.5 -99 -55.5s-86.5 -22.5 -134.5 -22.5c-94 0 -175.833 26.833 -245.5 80.5s-104.5 128.834 -104.5 225.501zM224.999 289c0 -52 20.166 -97.501 60.499 -136.501s96.833 -58.5 169.5 -58.5c92.667 0 168.334 39.667 227.001 119
s88 167.333 88 264v47h-59c-36.667 0 -67.667 -0.666992 -93 -2s-59.5 -4 -102.5 -8s-79.333 -11.167 -109 -21.5s-59.5 -23.666 -89.5 -39.999s-52.833 -38.5 -68.5 -66.5s-23.5 -60.333 -23.5 -97zM532.498 1174c-42.333 0 -78.166 13.5 -107.499 40.5s-44 61.667 -44 104
s14.667 77.166 44 104.499s65.166 41 107.499 41s78.166 -13.667 107.499 -41s44 -62.166 44 -104.499s-14.667 -77 -44 -104s-65.166 -40.5 -107.499 -40.5zM531.998 1251c19.333 0 35.5 6.5 48.5 19.5s19.5 29.167 19.5 48.5c0 20.667 -6.5 37.5 -19.5 50.5
s-29 19.5 -48 19.5s-35 -6.5 -48 -19.5s-19.5 -29.833 -19.5 -50.5c0 -19.333 6 -35.5 18 -48.5s28.333 -19.5 49 -19.5z" />
    <glyph glyph-name="ae" unicode="&#xe6;" horiz-adv-x="1783" 
d="M82 281c0 46.667 7.8291 88 23.4961 124s35.167 65.833 58.5 89.5s53.333 44.167 90 61.5s71.834 30.333 105.501 39s73.667 15.5 120 20.5s84.166 7.83301 113.499 8.5s65 1 107 1h68v22c0 106.667 -20.5 181.834 -61.5 225.501s-108.5 65.5 -202.5 65.5
c-44 0 -88.5 -6.83301 -133.5 -20.5s-67.5 -36.834 -67.5 -69.501v-66h-133v99c0 57.333 34.833 100.666 104.5 129.999s146.834 44 231.501 44c192.667 0 311.334 -71 356.001 -213h4c84.667 142 214.334 213 389.001 213c134 0 238.167 -44 312.5 -132
s111.5 -193.667 111.5 -317l-4 -92h-772c2.66699 -131.333 39.834 -233.166 111.501 -305.499s162.834 -108.5 273.501 -108.5c113.333 0 213.666 39.667 300.999 119l8 8l66 -104c-10.667 -10.667 -26.334 -24.334 -47.001 -41.001s-64.167 -38.667 -130.5 -66
s-134.166 -41 -203.499 -41c-105.333 0 -197.5 25.333 -276.5 76s-137.833 121 -176.5 211h-4c-4 -15.333 -10.333 -32.5 -19 -51.5s-24 -43.167 -46 -72.5s-46.333 -55.166 -73 -77.499s-62.167 -42.166 -106.5 -59.499s-92.5 -26 -144.5 -26c-100 0 -184 27.167 -252 81.5
s-102 129.166 -102 224.499zM912.996 625h625c-4 101.333 -33.667 178.5 -89 231.5s-122 79.5 -200 79.5c-87.333 0 -161.333 -26.833 -222 -80.5s-98.667 -130.5 -114 -230.5zM224.996 289c0 -53.333 20.5 -99.166 61.5 -137.499s97.833 -57.5 170.5 -57.5
c92.667 0 168 40 226 120s87 168.333 87 265v35h-121c-54.667 0 -102.167 -2 -142.5 -6s-84.333 -12.833 -132 -26.5s-84.5 -36.834 -110.5 -69.501s-39 -73.667 -39 -123z" />
    <glyph glyph-name="ccedilla" unicode="&#xe7;" horiz-adv-x="1081" 
d="M82 514c0 157.333 51.834 286.831 155.501 388.498s232.834 152.5 387.501 152.5c32.667 0 68.5 -3.83301 107.5 -11.5s78.5 -19 118.5 -34s73.333 -37.833 100 -68.5s40 -65.667 40 -105v-93h-131v60c0 39.333 -26.333 70.333 -79 93s-104.667 34 -156 34
c-113.333 0 -208.333 -38.667 -285 -116s-115 -177.333 -115 -300s39.333 -222 118 -298s174 -114 286 -114c124 0 229.667 43.667 317 131l15 15l65 -105l-16.5 -17c-7 -7.33301 -23.333 -20.666 -49 -39.999s-53.167 -36.5 -82.5 -51.5s-67.333 -28.667 -114 -41
s-95.334 -18.5 -146.001 -18.5l-16 -88c44 -6.66699 78.833 -22.667 104.5 -48s38.5 -57.666 38.5 -96.999c0 -56 -18.667 -97 -56 -123s-84 -39 -140 -39l-103 10v99c26 -8 54.667 -12.333 86 -13c69.333 0 104.166 23.333 104.499 70s-38.5 70 -116.5 70l-31 -2l39 170
c-131.333 19.333 -238.5 77 -321.5 173s-124.5 215 -124.5 357z" />
    <glyph glyph-name="egrave" unicode="&#xe8;" horiz-adv-x="1122" 
d="M82 514c0 164 48.8311 295.168 146.498 393.501s218.167 147.5 361.5 147.5c136.667 0 242.834 -45.5 318.501 -136.5s113.5 -203.833 113.5 -338.5l-4 -70h-791c1.33301 -125.333 40.666 -225 117.999 -299s171.333 -111 282 -111c113.333 0 213 39 299 117l10 10
l68 -104c-10.667 -10.667 -26.667 -24.334 -48 -41.001s-65.166 -38.667 -131.499 -66s-134.166 -41 -203.499 -41c-154 0 -282.333 50.5 -385 151.5s-154 230.167 -154 387.5zM232.998 621.001h646.003c-4 102.667 -33.333 181.167 -88 235.5s-122.334 81.5 -203.001 81.5
c-88.667 0 -165.834 -27.833 -231.501 -83.5s-106.834 -133.5 -123.501 -233.5zM524.001 1196l-178 244h156l143 -244h-121z" />
    <glyph glyph-name="eacute" unicode="&#xe9;" horiz-adv-x="1122" 
d="M82 514c0 164 48.8311 295.168 146.498 393.501s218.167 147.5 361.5 147.5c136.667 0 242.834 -45.5 318.501 -136.5s113.5 -203.833 113.5 -338.5l-4 -70h-791c1.33301 -125.333 40.666 -225 117.999 -299s171.333 -111 282 -111c113.333 0 213 39 299 117l10 10
l68 -104c-10.667 -10.667 -26.667 -24.334 -48 -41.001s-65.166 -38.667 -131.499 -66s-134.166 -41 -203.499 -41c-154 0 -282.333 50.5 -385 151.5s-154 230.167 -154 387.5zM232.998 621.001h646.003c-4 102.667 -33.333 181.167 -88 235.5s-122.334 81.5 -203.001 81.5
c-88.667 0 -165.834 -27.833 -231.501 -83.5s-106.834 -133.5 -123.501 -233.5zM524.001 1196l144 244h155l-178 -244h-121z" />
    <glyph glyph-name="ecircumflex" unicode="&#xea;" horiz-adv-x="1122" 
d="M82 514c0 164 48.8311 295.168 146.498 393.501s218.167 147.5 361.5 147.5c136.667 0 242.834 -45.5 318.501 -136.5s113.5 -203.833 113.5 -338.5l-4 -70h-791c1.33301 -125.333 40.666 -225 117.999 -299s171.333 -111 282 -111c113.333 0 213 39 299 117l10 10
l68 -104c-10.667 -10.667 -26.667 -24.334 -48 -41.001s-65.166 -38.667 -131.499 -66s-134.166 -41 -203.499 -41c-154 0 -282.333 50.5 -385 151.5s-154 230.167 -154 387.5zM232.998 621.001h646.003c-4 102.667 -33.333 181.167 -88 235.5s-122.334 81.5 -203.001 81.5
c-88.667 0 -165.834 -27.833 -231.501 -83.5s-106.834 -133.5 -123.501 -233.5zM344.001 1196l170 244h143l170 -244h-129l-110 166h-4l-111 -166h-129z" />
    <glyph glyph-name="edieresis" unicode="&#xeb;" horiz-adv-x="1122" 
d="M82 514c0 164 48.8311 295.168 146.498 393.501s218.167 147.5 361.5 147.5c136.667 0 242.834 -45.5 318.501 -136.5s113.5 -203.833 113.5 -338.5l-4 -70h-791c1.33301 -125.333 40.666 -225 117.999 -299s171.333 -111 282 -111c113.333 0 213 39 299 117l10 10
l68 -104c-10.667 -10.667 -26.667 -24.334 -48 -41.001s-65.166 -38.667 -131.499 -66s-134.166 -41 -203.499 -41c-154 0 -282.333 50.5 -385 151.5s-154 230.167 -154 387.5zM232.998 621.001h646.003c-4 102.667 -33.333 181.167 -88 235.5s-122.334 81.5 -203.001 81.5
c-88.667 0 -165.834 -27.833 -231.501 -83.5s-106.834 -133.5 -123.501 -233.5zM680.001 1264v176h121v-176h-121zM373.001 1264v176h121v-176h-121z" />
    <glyph glyph-name="igrave" unicode="&#xec;" horiz-adv-x="516" 
d="M190 125v739c0 30 -15 45 -45 45h-86v121h146c44 0 75.833 -9.83301 95.5 -29.5s29.5 -51.5 29.5 -95.5v-739c0 -30 15 -45 45 -45h86v-121h-146c-44 -0 -75.833 9.83301 -95.5 29.5s-29.5 51.5 -29.5 95.5zM182 1196l-176 244h156l141 -244h-121z" />
    <glyph glyph-name="iacute" unicode="&#xed;" horiz-adv-x="516" 
d="M190 125v739c0 30 -15 45 -45 45h-86v121h146c44 0 75.833 -9.83301 95.5 -29.5s29.5 -51.5 29.5 -95.5v-739c0 -30 15 -45 45 -45h86v-121h-146c-44 -0 -75.833 9.83301 -95.5 29.5s-29.5 51.5 -29.5 95.5zM182 1196l144 244h155l-178 -244h-121z" />
    <glyph glyph-name="icircumflex" unicode="&#xee;" horiz-adv-x="516" 
d="M190 125v739c0 30 -15 45 -45 45h-86v121h146c44 0 75.833 -9.83301 95.5 -29.5s29.5 -51.5 29.5 -95.5v-739c0 -30 15 -45 45 -45h86v-121h-146c-44 -0 -75.833 9.83301 -95.5 29.5s-29.5 51.5 -29.5 95.5zM2 1196l172 244h141l172 -244h-129l-110 166h-4l-113 -166
h-129z" />
    <glyph glyph-name="idieresis" unicode="&#xef;" horiz-adv-x="516" 
d="M190 125v739c0 30 -15 45 -45 45h-86v121h146c44 0 75.833 -9.83301 95.5 -29.5s29.5 -51.5 29.5 -95.5v-739c0 -30 15 -45 45 -45h86v-121h-146c-44 -0 -75.833 9.83301 -95.5 29.5s-29.5 51.5 -29.5 95.5zM309 1264v176h121v-176h-121zM51 1264v176h123v-176h-123z" />
    <glyph glyph-name="eth" unicode="&#xf0;" horiz-adv-x="1157" 
d="M76 475c0 131.333 43.332 244.333 129.999 339s206.334 142 359.001 142c118.667 0 214.334 -34 287.001 -102l8 -8h4c-46.667 132.667 -131.334 241 -254.001 325l-360 -163l-27 98l277 129c-87.333 45.333 -184.333 80 -291 104l41 119
c157.333 -39.333 291 -92 401 -158l269 121l26 -98l-198 -92c206 -161.333 309 -385.333 309 -672c0 -70.667 -10 -139.5 -30 -206.5s-49.667 -129.167 -89 -186.5s-92.5 -103.5 -159.5 -138.5s-143.5 -52.5 -229.5 -52.5c-143.333 0 -258 49.833 -344 149.5
s-129 216.5 -129 350.5zM218.999 473c0 -101.333 30 -188.833 90 -262.5s141.333 -110.5 244 -110.5c117.333 0 206.666 44.167 267.999 132.5s92 188.166 92 299.499c0 88.667 -30.667 161.834 -92 219.501s-141.666 86.5 -240.999 86.5
c-116 0 -205.167 -35.833 -267.5 -107.5s-93.5 -157.5 -93.5 -257.5z" />
    <glyph glyph-name="ntilde" unicode="&#xf1;" horiz-adv-x="1245" 
d="M178 0l0.000976562 863.999c0 30 -15 45 -45 45h-86v121h143c83.333 0 125 -38.333 125 -115v-47l-4 -73h4c24.667 62.667 72.167 121.667 142.5 177s159.5 83 267.5 83c124 0 212.667 -33.5 266 -100.5s80 -166.833 80 -299.5v-489c0 -30 15 -45 45 -45h86v-121h-145
c-44 0 -75.833 9.83301 -95.5 29.5s-29.5 51.5 -29.5 95.5v493c0 96.667 -14.667 171.834 -44 225.501s-89 80.5 -179 80.5c-87.333 0 -165.833 -27 -235.5 -81s-116.167 -124 -139.5 -210c-10.667 -38 -16.334 -84.333 -17.001 -139v-494h-139zM326.001 1202
c0 160 63.333 240 190 240c39.333 0 73.833 -12.333 103.5 -37s56.667 -49.334 81 -74.001s48.833 -37 73.5 -37c54.667 0 82 47.333 82 142h109c0 -160 -63.667 -240 -191 -240c-39.333 0 -74 12.333 -104 37s-57 48.834 -81 72.501s-49 35.5 -75 35.5
c-54.667 0 -82 -46.333 -82 -139h-106z" />
    <glyph glyph-name="ograve" unicode="&#xf2;" horiz-adv-x="1251" 
d="M82 520c0 151.333 52.832 278.333 158.499 381s233.834 154 384.501 154c151.333 0 279.833 -51.167 385.5 -153.5s158.5 -229.5 158.5 -381.5c0 -154 -52.833 -283.333 -158.5 -388s-233.5 -157 -383.5 -157c-151.333 0 -280 52.333 -386 157s-159 234 -159 388z
M224.999 520c0 -118.667 39 -218.334 117 -299.001s173 -121 285 -121c110.667 0 204.834 40.333 282.501 121s116.5 180.334 116.5 299.001c0 116 -38.833 213 -116.5 291s-171.834 117 -282.501 117c-112 0 -207 -39 -285 -117s-117 -175 -117 -291zM564.999 1196
l-178 244h156l143 -244h-121z" />
    <glyph glyph-name="oacute" unicode="&#xf3;" horiz-adv-x="1251" 
d="M82 520c0 151.333 52.832 278.333 158.499 381s233.834 154 384.501 154c151.333 0 279.833 -51.167 385.5 -153.5s158.5 -229.5 158.5 -381.5c0 -154 -52.833 -283.333 -158.5 -388s-233.5 -157 -383.5 -157c-151.333 0 -280 52.333 -386 157s-159 234 -159 388z
M224.999 520c0 -118.667 39 -218.334 117 -299.001s173 -121 285 -121c110.667 0 204.834 40.333 282.501 121s116.5 180.334 116.5 299.001c0 116 -38.833 213 -116.5 291s-171.834 117 -282.501 117c-112 0 -207 -39 -285 -117s-117 -175 -117 -291zM564.999 1196l144 244
h155l-178 -244h-121z" />
    <glyph glyph-name="ocircumflex" unicode="&#xf4;" horiz-adv-x="1251" 
d="M82 520c0 151.333 52.832 278.333 158.499 381s233.834 154 384.501 154c151.333 0 279.833 -51.167 385.5 -153.5s158.5 -229.5 158.5 -381.5c0 -154 -52.833 -283.333 -158.5 -388s-233.5 -157 -383.5 -157c-151.333 0 -280 52.333 -386 157s-159 234 -159 388z
M224.999 520c0 -118.667 39 -218.334 117 -299.001s173 -121 285 -121c110.667 0 204.834 40.333 282.501 121s116.5 180.334 116.5 299.001c0 116 -38.833 213 -116.5 291s-171.834 117 -282.501 117c-112 0 -207 -39 -285 -117s-117 -175 -117 -291zM384.999 1196l170 244
h143l170 -244h-129l-110 166h-4l-111 -166h-129z" />
    <glyph glyph-name="otilde" unicode="&#xf5;" horiz-adv-x="1251" 
d="M82 520c0 151.333 52.832 278.333 158.499 381s233.834 154 384.501 154c151.333 0 279.833 -51.167 385.5 -153.5s158.5 -229.5 158.5 -381.5c0 -154 -52.833 -283.333 -158.5 -388s-233.5 -157 -383.5 -157c-151.333 0 -280 52.333 -386 157s-159 234 -159 388z
M224.999 520c0 -118.667 39 -218.334 117 -299.001s173 -121 285 -121c110.667 0 204.834 40.333 282.501 121s116.5 180.334 116.5 299.001c0 116 -38.833 213 -116.5 291s-171.834 117 -282.501 117c-112 0 -207 -39 -285 -117s-117 -175 -117 -291zM302.999 1202
c0 160 63.666 240 190.999 240c39.333 0 73.666 -12.333 102.999 -37s56.333 -49.334 81 -74.001s49.334 -37 74.001 -37c54.667 0 82 47.333 82 142h108c0 -160 -63.333 -240 -190 -240c-39.333 0 -74.166 12.333 -104.499 37s-57.5 48.834 -81.5 72.501
s-48.667 35.5 -74 35.5c-54.667 0 -82 -46.333 -82 -139h-107z" />
    <glyph glyph-name="odieresis" unicode="&#xf6;" horiz-adv-x="1251" 
d="M82 520c0 151.333 52.832 278.333 158.499 381s233.834 154 384.501 154c151.333 0 279.833 -51.167 385.5 -153.5s158.5 -229.5 158.5 -381.5c0 -154 -52.833 -283.333 -158.5 -388s-233.5 -157 -383.5 -157c-151.333 0 -280 52.333 -386 157s-159 234 -159 388z
M224.999 520c0 -118.667 39 -218.334 117 -299.001s173 -121 285 -121c110.667 0 204.834 40.333 282.501 121s116.5 180.334 116.5 299.001c0 116 -38.833 213 -116.5 291s-171.834 117 -282.501 117c-112 0 -207 -39 -285 -117s-117 -175 -117 -291zM720.999 1264v176h121
v-176h-121zM413.999 1264v176h121v-176h-121z" />
    <glyph glyph-name="divide" unicode="&#xf7;" 
d="M526 887v151h154v-151h-154zM102 522v119h1004v-119h-1004zM526 125v151h154v-151h-154z" />
    <glyph glyph-name="oslash" unicode="&#xf8;" horiz-adv-x="1251" 
d="M201 -6l74.999 103.999c-130 108 -194.667 248.667 -194 422c0 151.333 52.833 278.333 158.5 381s233.834 154 384.501 154c102.667 0 196 -25.333 280 -76l80 113l84 -62l-80 -110c120 -105.333 180 -238.666 180 -399.999c0 -154 -52.833 -283.333 -158.5 -388
s-233.5 -157 -383.5 -157c-96.667 0 -185 22 -265 66l-77 -109zM353.999 208.999l475 662.999c-62.667 36.667 -130 55.334 -202 56.001c-112 0 -207 -39 -285 -117s-117 -175 -117 -291c0 -124 43 -227.667 129 -311zM437.999 149.998
c58.667 -32.667 121.666 -49.335 188.999 -50.002c110.667 0 204.834 40.333 282.501 121s116.5 180.334 116.5 299.001c0 114.667 -39.667 210.334 -119 287.001z" />
    <glyph glyph-name="ugrave" unicode="&#xf9;" horiz-adv-x="1234" 
d="M174 375l-0.000976562 489.002c0 30 -15 45 -45 45h-86v121h145c44 0 75.833 -9.5 95.5 -28.5s29.5 -49.833 29.5 -92.5v-497c0 -96.667 15 -171.834 45 -225.501s90.333 -80.5 181 -80.5c112 0 203.167 42.667 273.5 128s105.5 186.333 105.5 303v493h139v-864
c0 -30 15 -45 45 -45h86v-121h-141c-83.333 0 -125 38.333 -125 115v47l4 74h-4c-26 -62.667 -74.167 -121.834 -144.5 -177.501s-156.166 -83.5 -257.499 -83.5c-120 0 -207.667 32.833 -263 98.5s-83 166.167 -83 301.5zM542.999 1196l-178 244h155l144 -244h-121z" />
    <glyph glyph-name="uacute" unicode="&#xfa;" horiz-adv-x="1234" 
d="M174 375l-0.000976562 489.002c0 30 -15 45 -45 45h-86v121h145c44 0 75.833 -9.5 95.5 -28.5s29.5 -49.833 29.5 -92.5v-497c0 -96.667 15 -171.834 45 -225.501s90.333 -80.5 181 -80.5c112 0 203.167 42.667 273.5 128s105.5 186.333 105.5 303v493h139v-864
c0 -30 15 -45 45 -45h86v-121h-141c-83.333 0 -125 38.333 -125 115v47l4 74h-4c-26 -62.667 -74.167 -121.834 -144.5 -177.501s-156.166 -83.5 -257.499 -83.5c-120 0 -207.667 32.833 -263 98.5s-83 166.167 -83 301.5zM542.999 1196l143 244h156l-178 -244h-121z" />
    <glyph glyph-name="ucircumflex" unicode="&#xfb;" horiz-adv-x="1234" 
d="M174 375l-0.000976562 489.002c0 30 -15 45 -45 45h-86v121h145c44 0 75.833 -9.5 95.5 -28.5s29.5 -49.833 29.5 -92.5v-497c0 -96.667 15 -171.834 45 -225.501s90.333 -80.5 181 -80.5c112 0 203.167 42.667 273.5 128s105.5 186.333 105.5 303v493h139v-864
c0 -30 15 -45 45 -45h86v-121h-141c-83.333 0 -125 38.333 -125 115v47l4 74h-4c-26 -62.667 -74.167 -121.834 -144.5 -177.501s-156.166 -83.5 -257.499 -83.5c-120 0 -207.667 32.833 -263 98.5s-83 166.167 -83 301.5zM361.999 1196l170 244h144l170 -244h-129l-111 166
h-4l-110 -166h-130z" />
    <glyph glyph-name="udieresis" unicode="&#xfc;" horiz-adv-x="1234" 
d="M174 375l-0.000976562 489.002c0 30 -15 45 -45 45h-86v121h145c44 0 75.833 -9.5 95.5 -28.5s29.5 -49.833 29.5 -92.5v-497c0 -96.667 15 -171.834 45 -225.501s90.333 -80.5 181 -80.5c112 0 203.167 42.667 273.5 128s105.5 186.333 105.5 303v493h139v-864
c0 -30 15 -45 45 -45h86v-121h-141c-83.333 0 -125 38.333 -125 115v47l4 74h-4c-26 -62.667 -74.167 -121.834 -144.5 -177.501s-156.166 -83.5 -257.499 -83.5c-120 0 -207.667 32.833 -263 98.5s-83 166.167 -83 301.5zM697.999 1264v176h121v-176h-121zM390.999 1264
v176h121v-176h-121z" />
    <glyph glyph-name="yacute" unicode="&#xfd;" horiz-adv-x="1103" 
d="M82 -227c0 -2.66699 6.16504 -9.83301 18.498 -21.5s31.5 -24 57.5 -37s52 -19.5 78 -19.5c80.667 0 144 56 190 168l61 141l-362 858c-13.333 31.333 -37.333 47 -72 47h-20v121h63c46.667 0 79.834 -7.16699 99.501 -21.5s39.167 -44.5 58.5 -90.5l264 -644l37 -110h4
c9.33301 39.333 21 76 35 110l254 644c18 46.667 37.167 77 57.5 91s54.5 21 102.5 21h63v-121h-20c-35.333 0 -59.333 -15.667 -72 -47l-444 -1077c-27.333 -66.667 -66.666 -119.167 -117.999 -157.5s-110.333 -57.5 -177 -57.5c-88.667 0 -162 31.333 -220 94l-4 6z
M486.998 1196l144 244h155l-178 -244h-121z" />
    <glyph glyph-name="thorn" unicode="&#xfe;" horiz-adv-x="1196" 
d="M172 -410l0.000976562 1684c0 30 -15 45 -45 45h-86v121h145c44 0 75.833 -10 95.5 -30s29.5 -51.667 29.5 -95v-367l-4 -90h4c66.667 131.333 182 197 346 197c139.333 0 249.666 -49.5 330.999 -148.5s122 -229.167 122 -390.5s-40.667 -291.833 -122 -391.5
s-191.666 -149.5 -330.999 -149.5c-49.333 0 -94.666 6.5 -135.999 19.5s-74.333 29.167 -99 48.5s-45.834 38.5 -63.501 57.5s-29.834 34.5 -36.501 46.5l-11 21h-4c2.66699 -24.667 4 -54.667 4 -90v-488h-139zM307.001 514c0 -140.667 32.168 -244.833 96.501 -312.5
s144.166 -101.5 239.499 -101.5c96.667 0 174.834 38 234.501 114s89.5 176.667 89.5 302c0 124 -29.833 223.667 -89.5 299s-137.834 113 -234.501 113c-98 0 -178.5 -33.5 -241.5 -100.5s-94.5 -171.5 -94.5 -313.5z" />
    <glyph glyph-name="ydieresis" unicode="&#xff;" horiz-adv-x="1103" 
d="M82 -227c0 -2.66699 6.16504 -9.83301 18.498 -21.5s31.5 -24 57.5 -37s52 -19.5 78 -19.5c80.667 0 144 56 190 168l61 141l-362 858c-13.333 31.333 -37.333 47 -72 47h-20v121h63c46.667 0 79.834 -7.16699 99.501 -21.5s39.167 -44.5 58.5 -90.5l264 -644l37 -110h4
c9.33301 39.333 21 76 35 110l254 644c18 46.667 37.167 77 57.5 91s54.5 21 102.5 21h63v-121h-20c-35.333 0 -59.333 -15.667 -72 -47l-444 -1077c-27.333 -66.667 -66.666 -119.167 -117.999 -157.5s-110.333 -57.5 -177 -57.5c-88.667 0 -162 31.333 -220 94l-4 6z
M642.998 1264v176h121v-176h-121zM335.998 1264v176h121v-176h-121z" />
    <glyph glyph-name="Amacron" unicode="&#x100;" horiz-adv-x="1345" 
d="M25 0v127h26c38 0 62.667 15 74 45l471 1268h154l471 -1268c10.667 -30 35 -45 73 -45h25v-127h-66c-52 0 -88.833 7.5 -110.5 22.5s-41.5 47.167 -59.5 96.5l-125 340h-571l-127 -340c-19.333 -49.333 -39.5 -81.5 -60.5 -96.5s-56.833 -22.5 -107.5 -22.5h-67zM426 584
h494.001l-191 514l-55 186h-4c-20.667 -79.333 -39.334 -141.333 -56.001 -186zM422.001 1608v110h504v-110h-504z" />
    <glyph glyph-name="amacron" unicode="&#x101;" horiz-adv-x="1083" 
d="M82 281c0 236 210.332 354 630.999 354h57v12c0 106.667 -20.5 181.834 -61.5 225.501s-109.167 65.5 -204.5 65.5c-42 0 -86 -6.83301 -132 -20.5s-69 -36.834 -69 -69.501v-66h-133v99c0 32.667 13 61.667 39 87s58.5 43.666 97.5 54.999s75.167 19.5 108.5 24.5
s63.666 7.5 90.999 7.5c151.333 0 256.333 -34.833 315 -104.5s88 -166.834 88 -291.501v-493c0 -30 15 -45 45 -45h86v-121h-141c-44 0 -75.5 9.83301 -94.5 29.5s-28.5 50.834 -28.5 93.501l2 76h-4c1.33301 0 -1.66699 -7.5 -9 -22.5s-19.666 -33.833 -36.999 -56.5
s-38.166 -45 -62.499 -67s-57.333 -40.5 -99 -55.5s-86.5 -22.5 -134.5 -22.5c-94 0 -175.833 26.833 -245.5 80.5s-104.5 128.834 -104.5 225.501zM224.999 289c0 -52 20.166 -97.501 60.499 -136.501s96.833 -58.5 169.5 -58.5c92.667 0 168.334 39.667 227.001 119
s88 167.333 88 264v47h-59c-36.667 0 -67.667 -0.666992 -93 -2s-59.5 -4 -102.5 -8s-79.333 -11.167 -109 -21.5s-59.5 -23.666 -89.5 -39.999s-52.833 -38.5 -68.5 -66.5s-23.5 -60.333 -23.5 -97zM280.998 1264v110h503v-110h-503z" />
    <glyph glyph-name="Abreve" unicode="&#x102;" horiz-adv-x="1345" 
d="M25 0v127h26c38 0 62.667 15 74 45l471 1268h154l471 -1268c10.667 -30 35 -45 73 -45h25v-127h-66c-52 0 -88.833 7.5 -110.5 22.5s-41.5 47.167 -59.5 96.5l-125 340h-571l-127 -340c-19.333 -49.333 -39.5 -81.5 -60.5 -96.5s-56.833 -22.5 -107.5 -22.5h-67zM426 584
h494.001l-191 514l-55 186h-4c-20.667 -79.333 -39.334 -141.333 -56.001 -186zM674.001 1534c-62.667 0 -117.332 19.5 -163.999 58.5s-70 92.5 -70 160.5v31h107v-27c0 -42 11.833 -73.667 35.5 -95s54.167 -32 91.5 -32c35.333 0 65 10.667 89 32s36 53 36 95v27h106v-31
c0 -68 -22.833 -121.5 -68.5 -160.5s-99.834 -58.5 -162.501 -58.5z" />
    <glyph glyph-name="abreve" unicode="&#x103;" horiz-adv-x="1083" 
d="M82 281c0 236 210.332 354 630.999 354h57v12c0 106.667 -20.5 181.834 -61.5 225.501s-109.167 65.5 -204.5 65.5c-42 0 -86 -6.83301 -132 -20.5s-69 -36.834 -69 -69.501v-66h-133v99c0 32.667 13 61.667 39 87s58.5 43.666 97.5 54.999s75.167 19.5 108.5 24.5
s63.666 7.5 90.999 7.5c151.333 0 256.333 -34.833 315 -104.5s88 -166.834 88 -291.501v-493c0 -30 15 -45 45 -45h86v-121h-141c-44 0 -75.5 9.83301 -94.5 29.5s-28.5 50.834 -28.5 93.501l2 76h-4c1.33301 0 -1.66699 -7.5 -9 -22.5s-19.666 -33.833 -36.999 -56.5
s-38.166 -45 -62.499 -67s-57.333 -40.5 -99 -55.5s-86.5 -22.5 -134.5 -22.5c-94 0 -175.833 26.833 -245.5 80.5s-104.5 128.834 -104.5 225.501zM224.999 289c0 -52 20.166 -97.501 60.499 -136.501s96.833 -58.5 169.5 -58.5c92.667 0 168.334 39.667 227.001 119
s88 167.333 88 264v47h-59c-36.667 0 -67.667 -0.666992 -93 -2s-59.5 -4 -102.5 -8s-79.333 -11.167 -109 -21.5s-59.5 -23.666 -89.5 -39.999s-52.833 -38.5 -68.5 -66.5s-23.5 -60.333 -23.5 -97zM532.498 1190c-63 0 -117.668 19.5 -164.001 58.5
s-69.5 92.5 -69.5 160.5v31h107v-27c0 -42 11.833 -73.667 35.5 -95s53.834 -32 90.501 -32c35.333 0 65 10.667 89 32s36 53 36 95v27h107v-31c0 -68 -22.833 -121.5 -68.5 -160.5s-100 -58.5 -163 -58.5z" />
    <glyph glyph-name="Aogonek" unicode="&#x104;" horiz-adv-x="1345" 
d="M25 0l-0.000976562 127.004h26c38 0 62.667 15 74 45l471 1268h154l471 -1268c10.667 -30 35 -45 73 -45h25v-127c-98 -79.333 -147.333 -147 -148 -203c0 -27.333 10.667 -49.5 32 -66.5s42.333 -26.833 63 -29.5l32 -6l-32 -115c-5.33301 0 -13.166 0.666992 -23.499 2
s-28.5 6.16602 -54.5 14.499s-48.5 18.666 -67.5 30.999s-36.833 30.666 -53.5 54.999s-25 53.166 -25 86.499c0 86 47.333 164.333 142 235v4c-26 5.33301 -45.833 15.833 -59.5 31.5s-27.5 42.167 -41.5 79.5l-125 340h-571l-127 -340
c-19.333 -49.333 -39.5 -81.5 -60.5 -96.5s-56.833 -22.5 -107.5 -22.5h-67zM425.999 584.004h494.001l-191 514l-55 186h-4c-20.667 -79.333 -39.334 -141.333 -56.001 -186z" />
    <glyph glyph-name="aogonek" unicode="&#x105;" horiz-adv-x="1083" 
d="M82 281c0 236 210.332 354.005 630.999 354.005h57v12c0 105.333 -20.5 180.166 -61.5 224.499s-109.167 66.5 -204.5 66.5c-42 0 -86 -7.16699 -132 -21.5s-69 -37.166 -69 -68.499v-66h-133v99c0 34 12.667 63.333 38 88s57.333 42.667 96 54s74.834 19.5 108.501 24.5
s64.834 7.5 93.501 7.5c151.333 0 256.333 -34.833 315 -104.5s88 -166.834 88 -291.501v-493c0 -30 15 -45 45 -45h86v-121c-100 -76.667 -149.667 -144.334 -149 -203.001c0 -27.333 10.5 -49.5 31.5 -66.5s42.5 -26.833 64.5 -29.5l31 -6l-31 -115
c-5.33301 0 -13.166 0.666992 -23.499 2s-28.5 6.16602 -54.5 14.499s-48.833 18.666 -68.5 30.999s-37.667 30.666 -54 54.999s-24.5 53.166 -24.5 86.499c0 83.333 45 159 135 227v4h-23c-66.667 0 -100 38.333 -100 115v14l4 70h-4
c-1.33301 -5.33301 -4.33301 -13.166 -9 -23.499s-16.334 -28.5 -35.001 -54.5s-39.834 -48.5 -63.501 -67.5s-57.667 -36.833 -102 -53.5s-93.166 -25 -146.499 -25c-92.667 0 -171.834 28.5 -237.501 85.5s-98.5 130.5 -98.5 220.5zM224.999 289.005
c0 -52 20.166 -97.501 60.499 -136.501s96.833 -58.5 169.5 -58.5c92.667 0 168.334 39.667 227.001 119s88 167.333 88 264v47h-59c-36.667 0 -67.667 -0.666992 -93 -2s-59.5 -4 -102.5 -8s-79.333 -11.167 -109 -21.5s-59.5 -23.666 -89.5 -39.999
s-52.833 -38.5 -68.5 -66.5s-23.5 -60.333 -23.5 -97z" />
    <glyph glyph-name="Cacute" unicode="&#x106;" horiz-adv-x="1421" 
d="M78 731c0 207.333 67.8311 381.33 203.498 521.997s304.5 211 506.5 211c54.667 0 111.834 -5.66699 171.501 -17s117.834 -28.666 174.501 -51.999s103 -55.5 139 -96.5s54 -87.5 54 -139.5v-119h-135v80c0 62.667 -43 113.167 -129 151.5s-176 57.5 -270 57.5
c-161.333 0 -296 -56.333 -404 -169s-162 -255.667 -162 -429s54.667 -320 164 -440s245.333 -180 408 -180c166.667 0 312.667 56.667 438 170l33 32l82 -104c-5.33301 -6.66699 -13.166 -15.167 -23.499 -25.5s-33.333 -28.833 -69 -55.5s-73.667 -50.167 -114 -70.5
s-91.833 -39.166 -154.5 -56.499s-127.334 -26 -194.001 -26c-208.667 0 -380.667 72.833 -516 218.5s-203 324.834 -203 537.501zM722.998 1540l143 244h156l-178 -244h-121z" />
    <glyph glyph-name="cacute" unicode="&#x107;" horiz-adv-x="1081" 
d="M82 514c0 157.333 51.835 286.832 155.502 388.499s232.834 152.5 387.501 152.5c32.667 0 68.5 -3.83301 107.5 -11.5s78.5 -19 118.5 -34s73.333 -37.833 100 -68.5s40 -65.667 40 -105v-93h-131v60c0 39.333 -26.333 70.333 -79 93s-104.667 34 -156 34
c-113.333 0 -208.333 -38.667 -285 -116s-115 -177.333 -115 -300s39.333 -222 118 -298s174 -114 286 -114c124 0 229.667 43.667 317 131l15 15l65 -105l-16.5 -17c-7 -7.33301 -23.333 -21 -49 -41s-52.834 -37.167 -81.501 -51.5s-66.334 -27.666 -113.001 -39.999
s-94.334 -18.5 -143.001 -18.5c-155.333 0 -284.333 50.167 -387 150.5s-154 229.833 -154 388.5zM535.002 1196l143 244h156l-179 -244h-120z" />
    <glyph glyph-name="Ccircumflex" unicode="&#x108;" horiz-adv-x="1421" 
d="M78 731c0 207.333 67.8311 381.33 203.498 521.997s304.5 211 506.5 211c54.667 0 111.834 -5.66699 171.501 -17s117.834 -28.666 174.501 -51.999s103 -55.5 139 -96.5s54 -87.5 54 -139.5v-119h-135v80c0 62.667 -43 113.167 -129 151.5s-176 57.5 -270 57.5
c-161.333 0 -296 -56.333 -404 -169s-162 -255.667 -162 -429s54.667 -320 164 -440s245.333 -180 408 -180c166.667 0 312.667 56.667 438 170l33 32l82 -104c-5.33301 -6.66699 -13.166 -15.167 -23.499 -25.5s-33.333 -28.833 -69 -55.5s-73.667 -50.167 -114 -70.5
s-91.833 -39.166 -154.5 -56.499s-127.334 -26 -194.001 -26c-208.667 0 -380.667 72.833 -516 218.5s-203 324.834 -203 537.501zM542.998 1540l170 244h143l170 -244h-129l-111 166h-4l-110 -166h-129z" />
    <glyph glyph-name="ccircumflex" unicode="&#x109;" horiz-adv-x="1081" 
d="M82 514c0 157.333 51.835 286.832 155.502 388.499s232.834 152.5 387.501 152.5c32.667 0 68.5 -3.83301 107.5 -11.5s78.5 -19 118.5 -34s73.333 -37.833 100 -68.5s40 -65.667 40 -105v-93h-131v60c0 39.333 -26.333 70.333 -79 93s-104.667 34 -156 34
c-113.333 0 -208.333 -38.667 -285 -116s-115 -177.333 -115 -300s39.333 -222 118 -298s174 -114 286 -114c124 0 229.667 43.667 317 131l15 15l65 -105l-16.5 -17c-7 -7.33301 -23.333 -21 -49 -41s-52.834 -37.167 -81.501 -51.5s-66.334 -27.666 -113.001 -39.999
s-94.334 -18.5 -143.001 -18.5c-155.333 0 -284.333 50.167 -387 150.5s-154 229.833 -154 388.5zM354.002 1196l170 244h144l170 -244h-129l-111 166h-4l-111 -166h-129z" />
    <glyph glyph-name="Cdotaccent" unicode="&#x10a;" horiz-adv-x="1421" 
d="M78 731c0 207.333 67.8311 381.33 203.498 521.997s304.5 211 506.5 211c54.667 0 111.834 -5.66699 171.501 -17s117.834 -28.666 174.501 -51.999s103 -55.5 139 -96.5s54 -87.5 54 -139.5v-119h-135v80c0 62.667 -43 113.167 -129 151.5s-176 57.5 -270 57.5
c-161.333 0 -296 -56.333 -404 -169s-162 -255.667 -162 -429s54.667 -320 164 -440s245.333 -180 408 -180c166.667 0 312.667 56.667 438 170l33 32l82 -104c-5.33301 -6.66699 -13.166 -15.167 -23.499 -25.5s-33.333 -28.833 -69 -55.5s-73.667 -50.167 -114 -70.5
s-91.833 -39.166 -154.5 -56.499s-127.334 -26 -194.001 -26c-208.667 0 -380.667 72.833 -516 218.5s-203 324.834 -203 537.501zM716.998 1608v176h135v-176h-135z" />
    <glyph glyph-name="cdotaccent" unicode="&#x10b;" horiz-adv-x="1081" 
d="M82 514c0 157.333 51.835 286.832 155.502 388.499s232.834 152.5 387.501 152.5c32.667 0 68.5 -3.83301 107.5 -11.5s78.5 -19 118.5 -34s73.333 -37.833 100 -68.5s40 -65.667 40 -105v-93h-131v60c0 39.333 -26.333 70.333 -79 93s-104.667 34 -156 34
c-113.333 0 -208.333 -38.667 -285 -116s-115 -177.333 -115 -300s39.333 -222 118 -298s174 -114 286 -114c124 0 229.667 43.667 317 131l15 15l65 -105l-16.5 -17c-7 -7.33301 -23.333 -21 -49 -41s-52.834 -37.167 -81.501 -51.5s-66.334 -27.666 -113.001 -39.999
s-94.334 -18.5 -143.001 -18.5c-155.333 0 -284.333 50.167 -387 150.5s-154 229.833 -154 388.5zM528.002 1264v176h136v-176h-136z" />
    <glyph glyph-name="Ccaron" unicode="&#x10c;" horiz-adv-x="1421" 
d="M78 731c0 207.333 67.8311 381.33 203.498 521.997s304.5 211 506.5 211c54.667 0 111.834 -5.66699 171.501 -17s117.834 -28.666 174.501 -51.999s103 -55.5 139 -96.5s54 -87.5 54 -139.5v-119h-135v80c0 62.667 -43 113.167 -129 151.5s-176 57.5 -270 57.5
c-161.333 0 -296 -56.333 -404 -169s-162 -255.667 -162 -429s54.667 -320 164 -440s245.333 -180 408 -180c166.667 0 312.667 56.667 438 170l33 32l82 -104c-5.33301 -6.66699 -13.166 -15.167 -23.499 -25.5s-33.333 -28.833 -69 -55.5s-73.667 -50.167 -114 -70.5
s-91.833 -39.166 -154.5 -56.499s-127.334 -26 -194.001 -26c-208.667 0 -380.667 72.833 -516 218.5s-203 324.834 -203 537.501zM712.998 1540l-172 244h131l110 -164h4l111 164h129l-172 -244h-141z" />
    <glyph glyph-name="ccaron" unicode="&#x10d;" horiz-adv-x="1081" 
d="M82 514c0 157.333 51.835 286.832 155.502 388.499s232.834 152.5 387.501 152.5c32.667 0 68.5 -3.83301 107.5 -11.5s78.5 -19 118.5 -34s73.333 -37.833 100 -68.5s40 -65.667 40 -105v-93h-131v60c0 39.333 -26.333 70.333 -79 93s-104.667 34 -156 34
c-113.333 0 -208.333 -38.667 -285 -116s-115 -177.333 -115 -300s39.333 -222 118 -298s174 -114 286 -114c124 0 229.667 43.667 317 131l15 15l65 -105l-16.5 -17c-7 -7.33301 -23.333 -21 -49 -41s-52.834 -37.167 -81.501 -51.5s-66.334 -27.666 -113.001 -39.999
s-94.334 -18.5 -143.001 -18.5c-155.333 0 -284.333 50.167 -387 150.5s-154 229.833 -154 388.5zM524.002 1196l-172 244h131l111 -164h4l111 164h129l-172 -244h-142z" />
    <glyph glyph-name="Dcaron" unicode="&#x10e;" horiz-adv-x="1464" 
d="M219 125v1188h-133v127h578c220 0 395.333 -63.833 526 -191.5s196 -303.5 196 -527.5c0 -226.667 -65.5 -403.5 -196.5 -530.5s-306.167 -190.5 -525.5 -190.5h-320c-44 -0 -75.833 9.83301 -95.5 29.5s-29.5 51.5 -29.5 95.5zM362 172c0 -30 15.334 -45 46.001 -45h241
c180 0 323 51.5 429 154.5s159 249.5 159 439.5c0 188.667 -52.833 334.5 -158.5 437.5s-248.834 154.5 -429.501 154.5h-287v-1141zM645.001 1540l-172 244h131l111 -164h4l110 164h129l-172 -244h-141z" />
    <glyph glyph-name="dcaron" unicode="&#x10f;" horiz-adv-x="1359" 
d="M86 516c0 161.333 43 291.499 129 390.499s197.333 148.5 334 148.5c138 0 243 -52.667 315 -158l21 -35h4c-2.66699 23.333 -4 49.333 -4 78v334c0 30 -15 45 -45 45h-86v121h145c44 0 75.833 -10 95.5 -30s29.5 -51.667 29.5 -95v-1149c0 -30 15 -45 45 -45h86v-121
h-143c-82 0 -123 38.333 -123 115l4 65h-4l-11 -22c-4.66699 -9.33301 -16.667 -25.666 -36 -48.999s-41.333 -44 -66 -62s-58.5 -34.5 -101.5 -49.5s-89.5 -22.5 -139.5 -22.5c-136.667 0 -245.667 49.833 -327 149.5s-122 230.167 -122 391.5zM555 99.999
c94 0 173.167 34.834 237.5 104.501s96.5 173.5 96.5 311.5c0 113.333 -28.667 210.666 -86 291.999s-138 122 -242 122c-94 0 -172.833 -37.5 -236.5 -112.5s-95.5 -175.333 -95.5 -301s30.167 -226.5 90.5 -302.5s138.833 -114 235.5 -114zM1151 1440h127
c9.33301 -32.667 14 -65.667 14 -99c0 -49.333 -16.333 -110 -49 -182h-108c26 65.333 39 120 39 164c0 38.667 -7.66699 77.667 -23 117z" />
    <glyph glyph-name="Dcroat" unicode="&#x110;" horiz-adv-x="1464" 
d="M219 125v537h-102v122h102v529h-133v127h578c220 0 395.333 -63.833 526 -191.5s196 -303.5 196 -527.5c0 -226.667 -65.5 -403.5 -196.5 -530.5s-306.167 -190.5 -525.5 -190.5h-320c-44 -0 -75.833 9.83301 -95.5 29.5s-29.5 51.5 -29.5 95.5zM362 172
c0 -30 15.334 -45 46.001 -45h241c180 0 323 51.5 429 154.5s159 249.5 159 439.5c0 188.667 -52.833 334.5 -158.5 437.5s-248.834 154.5 -429.501 154.5h-287v-529h336v-122h-336v-490z" />
    <glyph glyph-name="dcroat" unicode="&#x111;" horiz-adv-x="1204" 
d="M535 -25c-136.667 0 -245.665 49.832 -326.998 149.499s-122 230.167 -122 391.5s43 291.5 129 390.5s197.333 148.5 334 148.5c138 0 243 -52.667 315 -158l21 -35h4c-2.66699 23.333 -4 49.333 -4 78v219h-269v105h269v176h139v-176h164v-105h-164v-993
c0 -30 15 -45 45 -45h86v-121h-143c-82 0 -123 38.333 -123 115l4 65h-4l-11 -22c-4.66699 -9.33301 -16.667 -25.666 -36 -48.999s-41.333 -44 -66 -62s-58.334 -34.5 -101.001 -49.5s-89.334 -22.5 -140.001 -22.5zM555.002 99.999c94 0 173.167 34.834 237.5 104.501
s96.5 173.5 96.5 311.5c0 113.333 -28.667 210.666 -86 291.999s-138 122 -242 122c-94 0 -172.833 -37.5 -236.5 -112.5s-95.5 -175.333 -95.5 -301s30.167 -226.5 90.5 -302.5s138.833 -114 235.5 -114z" />
    <glyph glyph-name="Emacron" unicode="&#x112;" horiz-adv-x="1142" 
d="M219 125v1188h-133v127h823c44 0 75.833 -10 95.5 -30s29.5 -51.667 29.5 -95v-144h-135v97c0 30 -15 45 -45 45h-492v-525h541v-126h-541v-490c0 -30 15.333 -45 46 -45h505c30 0 45 15 45 45v96h134v-143c0 -44 -10 -75.833 -30 -95.5s-51.667 -29.5 -95 -29.5h-623
c-44 -0 -75.833 9.83301 -95.5 29.5s-29.5 51.5 -29.5 95.5zM350 1608v110h504v-110h-504z" />
    <glyph glyph-name="emacron" unicode="&#x113;" horiz-adv-x="1122" 
d="M82 514c0 164 48.8311 295.168 146.498 393.501s218.167 147.5 361.5 147.5c136.667 0 242.834 -45.5 318.501 -136.5s113.5 -203.833 113.5 -338.5l-4 -70h-791c1.33301 -125.333 40.666 -225 117.999 -299s171.333 -111 282 -111c113.333 0 213 39 299 117l10 10
l68 -104c-10.667 -10.667 -26.667 -24.334 -48 -41.001s-65.166 -38.667 -131.499 -66s-134.166 -41 -203.499 -41c-154 0 -282.333 50.5 -385 151.5s-154 230.167 -154 387.5zM232.998 621.001h646.003c-4 102.667 -33.333 181.167 -88 235.5s-122.334 81.5 -203.001 81.5
c-88.667 0 -165.834 -27.833 -231.501 -83.5s-106.834 -133.5 -123.501 -233.5zM334.001 1264v110h504v-110h-504z" />
    <glyph glyph-name="Ebreve" unicode="&#x114;" horiz-adv-x="1142" 
d="M219 125v1188h-133v127h823c44 0 75.833 -10 95.5 -30s29.5 -51.667 29.5 -95v-144h-135v97c0 30 -15 45 -45 45h-492v-525h541v-126h-541v-490c0 -30 15.333 -45 46 -45h505c30 0 45 15 45 45v96h134v-143c0 -44 -10 -75.833 -30 -95.5s-51.667 -29.5 -95 -29.5h-623
c-44 -0 -75.833 9.83301 -95.5 29.5s-29.5 51.5 -29.5 95.5zM604 1534c-62.667 0 -117.167 19.5 -163.5 58.5s-69.5 92.5 -69.5 160.5v31h106v-27c0 -42 12 -73.667 36 -95s54.333 -32 91 -32c35.333 0 65 10.667 89 32s36 53 36 95v27h107v-31c0 -68 -23 -121.5 -69 -160.5
s-100.333 -58.5 -163 -58.5z" />
    <glyph glyph-name="ebreve" unicode="&#x115;" horiz-adv-x="1122" 
d="M82 514c0 164 48.8311 295.168 146.498 393.501s218.167 147.5 361.5 147.5c136.667 0 242.834 -45.5 318.501 -136.5s113.5 -203.833 113.5 -338.5l-4 -70h-791c1.33301 -125.333 40.666 -225 117.999 -299s171.333 -111 282 -111c113.333 0 213 39 299 117l10 10
l68 -104c-10.667 -10.667 -26.667 -24.334 -48 -41.001s-65.166 -38.667 -131.499 -66s-134.166 -41 -203.499 -41c-154 0 -282.333 50.5 -385 151.5s-154 230.167 -154 387.5zM232.998 621.001h646.003c-4 102.667 -33.333 181.167 -88 235.5s-122.334 81.5 -203.001 81.5
c-88.667 0 -165.834 -27.833 -231.501 -83.5s-106.834 -133.5 -123.501 -233.5zM586.001 1190c-62.667 0 -117.332 19.5 -163.999 58.5s-70 92.5 -70 160.5v31h107v-27c0 -42 11.833 -73.667 35.5 -95s54.167 -32 91.5 -32c35.333 0 65 10.667 89 32s36 53 36 95v27h106v-31
c0 -68 -22.833 -121.5 -68.5 -160.5s-99.834 -58.5 -162.501 -58.5z" />
    <glyph glyph-name="Edotaccent" unicode="&#x116;" horiz-adv-x="1142" 
d="M219 125v1188h-133v127h823c44 0 75.833 -10 95.5 -30s29.5 -51.667 29.5 -95v-144h-135v97c0 30 -15 45 -45 45h-492v-525h541v-126h-541v-490c0 -30 15.333 -45 46 -45h505c30 0 45 15 45 45v96h134v-143c0 -44 -10 -75.833 -30 -95.5s-51.667 -29.5 -95 -29.5h-623
c-44 -0 -75.833 9.83301 -95.5 29.5s-29.5 51.5 -29.5 95.5zM535 1608v176h135v-176h-135z" />
    <glyph glyph-name="edotaccent" unicode="&#x117;" horiz-adv-x="1122" 
d="M82 514c0 164 48.8311 295.168 146.498 393.501s218.167 147.5 361.5 147.5c136.667 0 242.834 -45.5 318.501 -136.5s113.5 -203.833 113.5 -338.5l-4 -70h-791c1.33301 -125.333 40.666 -225 117.999 -299s171.333 -111 282 -111c113.333 0 213 39 299 117l10 10
l68 -104c-10.667 -10.667 -26.667 -24.334 -48 -41.001s-65.166 -38.667 -131.499 -66s-134.166 -41 -203.499 -41c-154 0 -282.333 50.5 -385 151.5s-154 230.167 -154 387.5zM232.998 621.001h646.003c-4 102.667 -33.333 181.167 -88 235.5s-122.334 81.5 -203.001 81.5
c-88.667 0 -165.834 -27.833 -231.501 -83.5s-106.834 -133.5 -123.501 -233.5zM518.001 1264v176h135v-176h-135z" />
    <glyph glyph-name="Eogonek" unicode="&#x118;" horiz-adv-x="1142" 
d="M219 125l-0.000976562 1188h-133v127h823c44 0 75.833 -10 95.5 -30s29.5 -51.667 29.5 -95v-144h-135v97c0 30 -15 45 -45 45h-492v-525h541v-126h-541v-490c0 -30 15.333 -45 46 -45h505c30 0 45 15 45 45v96h134v-143c0 -46.667 -13.667 -82.334 -41 -107.001
c-4 -2.66699 -14 -10.5 -30 -23.5s-27.333 -22.5 -34 -28.5l-32 -27c-14.667 -12 -25 -23 -31 -33l-24 -33c-8.66699 -12 -14.667 -24.167 -18 -36.5s-5 -25.5 -5 -39.5c0 -27.333 10.5 -49.5 31.5 -66.5s41.833 -26.833 62.5 -29.5l33 -6l-31 -115
c-5.33301 0 -13.166 0.666992 -23.499 2s-28.5 6.16602 -54.5 14.499s-48.833 18.666 -68.5 30.999s-37.667 30.666 -54 54.999s-24.5 53.166 -24.5 86.499c0 86 44.333 161.667 133 227v4h-537c-44 -0 -75.833 9.83301 -95.5 29.5s-29.5 51.5 -29.5 95.5z" />
    <glyph glyph-name="eogonek" unicode="&#x119;" horiz-adv-x="1122" 
d="M82 514c0 164 48.832 295.173 146.499 393.506s218.167 147.5 361.5 147.5c136.667 0 242.834 -45.5 318.501 -136.5s113.5 -203.833 113.5 -338.5l-4 -70h-791c1.33301 -124 40.666 -223.333 117.999 -298s171.333 -112 282 -112c113.333 0 213 39 299 117l10 10
l68 -104c-13.333 -12 -49.5 -39.333 -108.5 -82s-105.167 -83.334 -138.5 -122.001s-50 -79.334 -50 -122.001c0 -27.333 10.5 -49.5 31.5 -66.5s42.5 -26.833 64.5 -29.5l31 -6l-31 -115c-5.33301 0 -13.166 0.666992 -23.499 2s-28.5 6.16602 -54.5 14.499
s-48.833 18.666 -68.5 30.999s-37.667 30.666 -54 54.999s-24.5 53.166 -24.5 86.499c0 70.667 36.667 140 110 208v5c-20.667 -4 -43 -6.33301 -67 -7c-154 0 -282.333 50.5 -385 151.5s-154 230.167 -154 387.5zM232.999 621.006h646.002
c-5.33301 102.667 -35 181.167 -89 235.5s-121.333 81.5 -202 81.5c-88.667 0 -165.834 -27.833 -231.501 -83.5s-106.834 -133.5 -123.501 -233.5z" />
    <glyph glyph-name="Ecaron" unicode="&#x11a;" horiz-adv-x="1142" 
d="M219 125v1188h-133v127h823c44 0 75.833 -10 95.5 -30s29.5 -51.667 29.5 -95v-144h-135v97c0 30 -15 45 -45 45h-492v-525h541v-126h-541v-490c0 -30 15.333 -45 46 -45h505c30 0 45 15 45 45v96h134v-143c0 -44 -10 -75.833 -30 -95.5s-51.667 -29.5 -95 -29.5h-623
c-44 -0 -75.833 9.83301 -95.5 29.5s-29.5 51.5 -29.5 95.5zM530 1540l-172 244h131l111 -164h4l111 164h129l-172 -244h-142z" />
    <glyph glyph-name="ecaron" unicode="&#x11b;" horiz-adv-x="1122" 
d="M82 514c0 164 48.8311 295.168 146.498 393.501s218.167 147.5 361.5 147.5c136.667 0 242.834 -45.5 318.501 -136.5s113.5 -203.833 113.5 -338.5l-4 -70h-791c1.33301 -125.333 40.666 -225 117.999 -299s171.333 -111 282 -111c113.333 0 213 39 299 117l10 10
l68 -104c-10.667 -10.667 -26.667 -24.334 -48 -41.001s-65.166 -38.667 -131.499 -66s-134.166 -41 -203.499 -41c-154 0 -282.333 50.5 -385 151.5s-154 230.167 -154 387.5zM232.998 621.001h646.003c-4 102.667 -33.333 181.167 -88 235.5s-122.334 81.5 -203.001 81.5
c-88.667 0 -165.834 -27.833 -231.501 -83.5s-106.834 -133.5 -123.501 -233.5zM514.001 1196l-172 244h131l111 -164h4l110 164h129l-172 -244h-141z" />
    <glyph glyph-name="Gcircumflex" unicode="&#x11c;" horiz-adv-x="1495" 
d="M80 723c0 207.333 69.002 382.669 207.002 526.002s308.667 215 512 215c190 0 348.333 -50.333 475 -151l29 -25l-84 -106c-12 10.667 -29.333 24.167 -52 40.5s-70.334 38.166 -143.001 65.499s-147 41 -223 41c-162.667 0 -298.667 -57.667 -408 -173
s-164 -259.666 -164 -432.999c0 -176 54 -322 162 -438s244 -174 408 -174c53.333 0 105.166 7.16699 155.499 21.5s93 31.666 128 51.999s65.667 41.166 92 62.499s45.833 38.666 58.5 51.999l20 23v178c0 30 -15 45 -45 45h-88v127h144c44 0 75.833 -10 95.5 -30
s29.5 -51.667 29.5 -95v-547h-132v109l3 61h-5c-4 -5.33301 -10.333 -12.5 -19 -21.5s-28 -24.333 -58 -46s-62.167 -41.167 -96.5 -58.5s-78.5 -33.166 -132.5 -47.499s-109 -21.5 -165 -21.5c-198 0 -364.833 71 -500.5 213s-203.5 320.333 -203.5 535zM551.002 1540
l170 244h143l170 -244h-129l-110 166h-4l-111 -166h-129z" />
    <glyph glyph-name="gcircumflex" unicode="&#x11d;" horiz-adv-x="1185" 
d="M86 534.5c0 155.667 40.334 281.334 121.001 377.001s189 143.5 325 143.5c52 0 99.167 -6.16699 141.5 -18.5s75.5 -27 99.5 -44s44.167 -34.167 60.5 -51.5s27.166 -32 32.499 -44l8 -18h5v39c0 75.333 38.667 112.666 116 111.999h144v-121h-84c-30 0 -45 -15 -45 -45
v-839c0 -152.667 -47.5 -266.667 -142.5 -342s-212.833 -113 -353.5 -113c-117.333 0 -229.333 27.333 -336 82l53 117c84.667 -48 177.667 -72 279 -72c108 0 195 26.667 261 80s99 134.333 99 243v91l2 73h-4c-64 -118.667 -171.667 -178 -323 -178
c-138 0 -249 49.167 -333 147.5s-126 225.333 -126 381zM565.001 131c91.333 0 165.334 31.833 222.001 95.5s85 166.5 85 308.5c0 262 -108.333 393 -325 393c-100 0 -178 -34.5 -234 -103.5s-84 -165 -84 -288s30.667 -221.333 92 -295s142.666 -110.5 243.999 -110.5z
M350.002 1196l170 244h144l170 -244h-129l-111 166h-4l-111 -166h-129z" />
    <glyph glyph-name="Gbreve" unicode="&#x11e;" horiz-adv-x="1495" 
d="M80 723c0 207.333 69.002 382.669 207.002 526.002s308.667 215 512 215c190 0 348.333 -50.333 475 -151l29 -25l-84 -106c-12 10.667 -29.333 24.167 -52 40.5s-70.334 38.166 -143.001 65.499s-147 41 -223 41c-162.667 0 -298.667 -57.667 -408 -173
s-164 -259.666 -164 -432.999c0 -176 54 -322 162 -438s244 -174 408 -174c53.333 0 105.166 7.16699 155.499 21.5s93 31.666 128 51.999s65.667 41.166 92 62.499s45.833 38.666 58.5 51.999l20 23v178c0 30 -15 45 -45 45h-88v127h144c44 0 75.833 -10 95.5 -30
s29.5 -51.667 29.5 -95v-547h-132v109l3 61h-5c-4 -5.33301 -10.333 -12.5 -19 -21.5s-28 -24.333 -58 -46s-62.167 -41.167 -96.5 -58.5s-78.5 -33.166 -132.5 -47.499s-109 -21.5 -165 -21.5c-198 0 -364.833 71 -500.5 213s-203.5 320.333 -203.5 535zM794.502 1534
c-63 0 -117.667 19.5 -164 58.5s-69.5 92.5 -69.5 160.5v31h107v-27c0 -42 11.833 -73.667 35.5 -95s54.167 -32 91.5 -32c35.333 0 65 10.667 89 32s36 53 36 95v27h106v-31c0 -68 -22.833 -121.5 -68.5 -160.5s-100 -58.5 -163 -58.5z" />
    <glyph glyph-name="gbreve" unicode="&#x11f;" horiz-adv-x="1185" 
d="M86 534.5c0 155.667 40.334 281.334 121.001 377.001s189 143.5 325 143.5c52 0 99.167 -6.16699 141.5 -18.5s75.5 -27 99.5 -44s44.167 -34.167 60.5 -51.5s27.166 -32 32.499 -44l8 -18h5v39c0 75.333 38.667 112.666 116 111.999h144v-121h-84c-30 0 -45 -15 -45 -45
v-839c0 -152.667 -47.5 -266.667 -142.5 -342s-212.833 -113 -353.5 -113c-117.333 0 -229.333 27.333 -336 82l53 117c84.667 -48 177.667 -72 279 -72c108 0 195 26.667 261 80s99 134.333 99 243v91l2 73h-4c-64 -118.667 -171.667 -178 -323 -178
c-138 0 -249 49.167 -333 147.5s-126 225.333 -126 381zM565.001 131c91.333 0 165.334 31.833 222.001 95.5s85 166.5 85 308.5c0 262 -108.333 393 -325 393c-100 0 -178 -34.5 -234 -103.5s-84 -165 -84 -288s30.667 -221.333 92 -295s142.666 -110.5 243.999 -110.5z
M594.002 1190c-62.667 0 -117.332 19.5 -163.999 58.5s-70 92.5 -70 160.5v31h107v-27c0 -42 12 -73.667 36 -95s54.333 -32 91 -32c35.333 0 65 10.667 89 32s36 53 36 95v27h106v-31c0 -68 -22.833 -121.5 -68.5 -160.5s-99.834 -58.5 -162.501 -58.5z" />
    <glyph glyph-name="Gdotaccent" unicode="&#x120;" horiz-adv-x="1495" 
d="M80 723c0 207.333 69.002 382.669 207.002 526.002s308.667 215 512 215c190 0 348.333 -50.333 475 -151l29 -25l-84 -106c-12 10.667 -29.333 24.167 -52 40.5s-70.334 38.166 -143.001 65.499s-147 41 -223 41c-162.667 0 -298.667 -57.667 -408 -173
s-164 -259.666 -164 -432.999c0 -176 54 -322 162 -438s244 -174 408 -174c53.333 0 105.166 7.16699 155.499 21.5s93 31.666 128 51.999s65.667 41.166 92 62.499s45.833 38.666 58.5 51.999l20 23v178c0 30 -15 45 -45 45h-88v127h144c44 0 75.833 -10 95.5 -30
s29.5 -51.667 29.5 -95v-547h-132v109l3 61h-5c-4 -5.33301 -10.333 -12.5 -19 -21.5s-28 -24.333 -58 -46s-62.167 -41.167 -96.5 -58.5s-78.5 -33.166 -132.5 -47.499s-109 -21.5 -165 -21.5c-198 0 -364.833 71 -500.5 213s-203.5 320.333 -203.5 535zM727.002 1608v176
h135v-176h-135z" />
    <glyph glyph-name="gdotaccent" unicode="&#x121;" horiz-adv-x="1185" 
d="M86 534.5c0 155.667 40.334 281.334 121.001 377.001s189 143.5 325 143.5c52 0 99.167 -6.16699 141.5 -18.5s75.5 -27 99.5 -44s44.167 -34.167 60.5 -51.5s27.166 -32 32.499 -44l8 -18h5v39c0 75.333 38.667 112.666 116 111.999h144v-121h-84c-30 0 -45 -15 -45 -45
v-839c0 -152.667 -47.5 -266.667 -142.5 -342s-212.833 -113 -353.5 -113c-117.333 0 -229.333 27.333 -336 82l53 117c84.667 -48 177.667 -72 279 -72c108 0 195 26.667 261 80s99 134.333 99 243v91l2 73h-4c-64 -118.667 -171.667 -178 -323 -178
c-138 0 -249 49.167 -333 147.5s-126 225.333 -126 381zM565.001 131c91.333 0 165.334 31.833 222.001 95.5s85 166.5 85 308.5c0 262 -108.333 393 -325 393c-100 0 -178 -34.5 -234 -103.5s-84 -165 -84 -288s30.667 -221.333 92 -295s142.666 -110.5 243.999 -110.5z
M524.002 1264v176h135v-176h-135z" />
    <glyph glyph-name="Gcommaaccent" unicode="&#x122;" horiz-adv-x="1495" 
d="M80 723c0 207.333 69.002 382.669 207.002 526.002s308.667 215 512 215c190 0 348.333 -50.333 475 -151l29 -25l-84 -106c-12 10.667 -29.333 24.167 -52 40.5s-70.334 38.166 -143.001 65.499s-147 41 -223 41c-162.667 0 -298.667 -57.667 -408 -173
s-164 -259.666 -164 -432.999c0 -176 54 -322 162 -438s244 -174 408 -174c53.333 0 105.166 7.16699 155.499 21.5s93 31.666 128 51.999s65.667 41.166 92 62.499s45.833 38.666 58.5 51.999l20 23v178c0 30 -15 45 -45 45h-88v127h144c44 0 75.833 -10 95.5 -30
s29.5 -51.667 29.5 -95v-547h-132v109l3 61h-5c-4 -5.33301 -10.333 -12.5 -19 -21.5s-28 -24.333 -58 -46s-62.167 -41.167 -96.5 -58.5s-78.5 -33.166 -132.5 -47.499s-109 -21.5 -165 -21.5c-198 0 -364.833 71 -500.5 213s-203.5 320.333 -203.5 535zM711.002 -128.997
l126.999 0.000976562c9.33301 -32.667 14 -65.334 14 -98.001c0 -49.333 -16.333 -110.333 -49 -183h-109c26 65.333 39 120 39 164c0.666992 38.667 -6.66602 77.667 -21.999 117z" />
    <glyph glyph-name="gcommaaccent" unicode="&#x123;" horiz-adv-x="1185" 
d="M86 534.5c0 155.667 40.334 281.334 121.001 377.001s189 143.5 325 143.5c52 0 99.167 -6.16699 141.5 -18.5s75.5 -27 99.5 -44s44.167 -34.167 60.5 -51.5s27.166 -32 32.499 -44l8 -18h5v39c0 75.333 38.667 112.666 116 111.999h144v-121h-84c-30 0 -45 -15 -45 -45
v-839c0 -152.667 -47.5 -266.667 -142.5 -342s-212.833 -113 -353.5 -113c-117.333 0 -229.333 27.333 -336 82l53 117c84.667 -48 177.667 -72 279 -72c108 0 195 26.667 261 80s99 134.333 99 243v91l2 73h-4c-64 -118.667 -171.667 -178 -323 -178
c-138 0 -249 49.167 -333 147.5s-126 225.333 -126 381zM565.001 131c91.333 0 165.334 31.833 222.001 95.5s85 166.5 85 308.5c0 262 -108.333 393 -325 393c-100 0 -178 -34.5 -234 -103.5s-84 -165 -84 -288s30.667 -221.333 92 -295s142.666 -110.5 243.999 -110.5z
M637.002 1159l-127 -0.000976562c-9.33301 32.667 -14 65.334 -14 98.001c0 49.333 16.333 110.333 49 183h108c-26 -64 -39 -118.667 -39 -164c0 -38.667 7.66699 -77.667 23 -117z" />
    <glyph glyph-name="Hcircumflex" unicode="&#x124;" horiz-adv-x="1550" 
d="M219 0v1268c0 30 -15 45 -45 45h-88v127h152c44 0 75.667 -10 95 -30s29 -51.667 29 -95v-531h828v531c0 44 9.5 75.833 28.5 95.5s50.5 29.5 94.5 29.5h153v-127h-88c-30 0 -45 -15 -45 -45v-1268h-143v657h-828v-657h-143zM535 1540l170 244h143l170 -244h-129
l-111 166h-4l-110 -166h-129z" />
    <glyph glyph-name="hcircumflex" unicode="&#x125;" horiz-adv-x="1239" 
d="M172 0v1274c0 30 -15 45 -45 45h-86v121h145c44 0 75.833 -9.66699 95.5 -29s29.5 -50 29.5 -92v-436l-4 -84h4c24.667 61.333 72.834 119.333 144.501 174s159.5 82 263.5 82c124 0 212.667 -33.5 266 -100.5s80 -166.833 80 -299.5v-489c0 -30 15 -45 45 -45h86v-121
h-145c-44 0 -75.833 9.83301 -95.5 29.5s-29.5 51.5 -29.5 95.5v493c0 46.667 -2.5 86 -7.5 118s-15 63.5 -30 94.5s-38.167 54.333 -69.5 70s-71 23.5 -119 23.5c-87.333 0 -165.5 -27.333 -234.5 -82s-114.833 -125 -137.5 -211
c-10.667 -36.667 -16.334 -82.334 -17.001 -137.001v-494h-139zM410 1540l170 244h143l170 -244h-129l-111 166h-4l-110 -166h-129z" />
    <glyph glyph-name="Hbar" unicode="&#x126;" horiz-adv-x="1550" 
d="M219 0v1049h-135v110h135v281h143v-281h828v281h143v-281h133v-110h-133v-1049h-143v657h-828v-657h-143zM362 784h828v265h-828v-265z" />
    <glyph glyph-name="hbar" unicode="&#x127;" horiz-adv-x="1239" 
d="M172 0v1159h-162v105h162v176h139v-176h269v-105h-269v-276l-4 -84h4c8 22 21.667 46.167 41 72.5s45 53.833 77 82.5s73.667 52.667 125 72s106.333 29 165 29c124 0 212.667 -33.5 266 -100.5s80 -166.833 80 -299.5v-489c0 -30 15 -45 45 -45h86v-121h-145
c-44 0 -75.833 9.83301 -95.5 29.5s-29.5 51.5 -29.5 95.5v493c0 46.667 -2.5 85.667 -7.5 117s-15 62.833 -30 94.5s-38.167 55.334 -69.5 71.001s-71 23.5 -119 23.5c-112 0 -204.833 -41.333 -278.5 -124s-110.5 -184.667 -110.5 -306v-494h-139z" />
    <glyph glyph-name="Itilde" unicode="&#x128;" horiz-adv-x="600" 
d="M94 0v127h135v1186h-135v127h412v-127h-137v-1186h137v-127h-412zM-25 1546c0 160 63.666 240.001 190.999 240.001c39.333 0 73.666 -12.333 102.999 -37s56.333 -49.334 81 -74.001s49.334 -37 74.001 -37c54.667 0 82 47.333 82 142h108
c0 -160 -63.333 -240 -190 -240c-39.333 0 -74.166 12.333 -104.499 37s-57.333 49 -81 73s-48.5 36 -74.5 36c-54.667 0 -82 -46.667 -82 -140h-107z" />
    <glyph glyph-name="itilde" unicode="&#x129;" horiz-adv-x="516" 
d="M190 125v739c0 30 -15 45 -45 45h-86v121h146c44 0 75.833 -9.83301 95.5 -29.5s29.5 -51.5 29.5 -95.5v-739c0 -30 15 -45 45 -45h86v-121h-146c-44 -0 -75.833 9.83301 -95.5 29.5s-29.5 51.5 -29.5 95.5zM-33 1202c0 160 56.666 240 169.999 240
c32.667 0 61.667 -12 87 -36s47.166 -48 65.499 -72s35.833 -36 52.5 -36c46.667 0 70 46 70 138h102c0 -160 -56.667 -240 -170 -240c-32.667 0 -61.667 12 -87 36s-47.166 47.833 -65.499 71.5s-35.166 35.5 -50.499 35.5c-46.667 0 -69.667 -45.667 -69 -137h-105z" />
    <glyph glyph-name="Imacron" unicode="&#x12a;" horiz-adv-x="600" 
d="M94 0v127h135v1186h-135v127h412v-127h-137v-1186h137v-127h-412zM47 1608v110h504v-110h-504z" />
    <glyph glyph-name="imacron" unicode="&#x12b;" horiz-adv-x="516" 
d="M190 125v739c0 30 -15 45 -45 45h-86v121h146c44 0 75.833 -9.83301 95.5 -29.5s29.5 -51.5 29.5 -95.5v-739c0 -30 15 -45 45 -45h86v-121h-146c-44 -0 -75.833 9.83301 -95.5 29.5s-29.5 51.5 -29.5 95.5zM27 1264v110h438v-110h-438z" />
    <glyph glyph-name="Ibreve" unicode="&#x12c;" horiz-adv-x="600" 
d="M94 0v127h135v1186h-135v127h412v-127h-137v-1186h137v-127h-412zM299 1534c-62.667 0 -117.166 19.5 -163.499 58.5s-69.5 92.5 -69.5 160.5v31h106v-27c0 -42 12 -73.667 36 -95s54.333 -32 91 -32c35.333 0 65 10.667 89 32s36 53 36 95v27h106v-31
c0 -68 -22.833 -121.5 -68.5 -160.5s-99.834 -58.5 -162.501 -58.5z" />
    <glyph glyph-name="ibreve" unicode="&#x12d;" horiz-adv-x="516" 
d="M190 125v739c0 30 -15 45 -45 45h-86v121h146c44 0 75.833 -9.83301 95.5 -29.5s29.5 -51.5 29.5 -95.5v-739c0 -30 15 -45 45 -45h86v-121h-146c-44 -0 -75.833 9.83301 -95.5 29.5s-29.5 51.5 -29.5 95.5zM246 1190c-62.667 0 -117.332 19.5 -163.999 58.5
s-70 92.5 -70 160.5v31h107v-27c0 -42 11.833 -73.667 35.5 -95s54.167 -32 91.5 -32c35.333 0 65 10.667 89 32s36 53 36 95v27h106v-31c0 -68 -22.833 -121.5 -68.5 -160.5s-99.834 -58.5 -162.501 -58.5z" />
    <glyph glyph-name="Iogonek" unicode="&#x12e;" horiz-adv-x="600" 
d="M94 0l-0.000976562 127.005h135v1186h-135v127h412v-127h-137v-1186h137v-127c-100 -76.667 -150 -144.334 -150 -203.001c0 -27.333 10.667 -49.5 32 -66.5s42.333 -26.833 63 -29.5l32 -6l-30 -115c-5.33301 0 -13.166 0.666992 -23.499 2s-28.5 6.16602 -54.5 14.499
s-49 18.666 -69 30.999s-38.167 30.666 -54.5 54.999s-24.5 53.166 -24.5 86.499c0 86 44.333 161.667 133 227v4h-266z" />
    <glyph glyph-name="iogonek" unicode="&#x12f;" horiz-adv-x="514" 
d="M184 1264v176h135v-176h-135zM328 905l-0.00292969 -738.997c0 -30 15 -45 45 -45h86v-121c-98 -79.333 -147.333 -147 -148 -203c0 -27.333 10.667 -49.5 32 -66.5s42.333 -26.833 63 -29.5l32 -6l-32 -115c-5.33301 0 -13.166 0.666992 -23.499 2
s-28.5 6.16602 -54.5 14.499s-48.667 18.666 -68 30.999s-37.166 30.666 -53.499 54.999s-24.5 53.166 -24.5 86.499c0 84.667 44.333 160.334 133 227.001v4h-22c-39.333 -0 -66.666 14.333 -81.999 43s-23 71 -23 127v694c0 30 -15 45 -45 45h-86v121h146
c44 0 75.833 -9.83301 95.5 -29.5s29.5 -51.5 29.5 -95.5z" />
    <glyph glyph-name="Idotaccent" unicode="&#x130;" horiz-adv-x="600" 
d="M94 0v127h135v1186h-135v127h412v-127h-137v-1186h137v-127h-412zM231 1608v176h136v-176h-136z" />
    <glyph glyph-name="dotlessi" unicode="&#x131;" horiz-adv-x="516" 
d="M190 125v739c0 30 -15 45 -45 45h-86v121h146c44 0 75.833 -9.83301 95.5 -29.5s29.5 -51.5 29.5 -95.5v-739c0 -30 15 -45 45 -45h86v-121h-146c-44 -0 -75.833 9.83301 -95.5 29.5s-29.5 51.5 -29.5 95.5z" />
    <glyph glyph-name="IJ" unicode="&#x132;" horiz-adv-x="1314" 
d="M698 -10v133c200.667 0 301 114.667 301 344v801c0 30 -15 45 -45 45h-243v127h307c44 0 75.833 -10 95.5 -30s29.5 -51.667 29.5 -95v-848c-0.666992 -318 -149 -477 -445 -477zM94 0v127h135v1186h-135v127h412v-127h-137v-1186h137v-127h-412z" />
    <glyph glyph-name="ij" unicode="&#x133;" horiz-adv-x="1044" 
d="M184 1264v176h135v-176h-135zM188 125v739c0 30 -15 45 -45 45h-86v121h146c44 0 75.833 -9.83301 95.5 -29.5s29.5 -51.5 29.5 -95.5v-739c0 -30 15 -45 45 -45h86v-121h-146c-44 -0 -75.833 9.83301 -95.5 29.5s-29.5 51.5 -29.5 95.5zM727 1264v176h135v-176h-135z
M451 -295c12 -1.33301 27 -1.99805 45 -1.99805c24.667 0 48.5 3 71.5 9s47.833 17.333 74.5 34s48.167 44 64.5 82s24.5 84.333 24.5 139v897c0 30 -15 45 -45 45h-86v121h145c44 0 75.833 -9.83301 95.5 -29.5s29.5 -51.5 29.5 -95.5v-944
c0 -80.667 -12.5 -148.334 -37.5 -203.001s-58.333 -93.834 -100 -117.501s-80 -40 -115 -49s-70.833 -13.5 -107.5 -13.5l-59 6v121z" />
    <glyph glyph-name="Jcircumflex" unicode="&#x134;" horiz-adv-x="1034" 
d="M49 403v57.999h144v-49c0 -105.333 25.5 -181.833 76.5 -229.5s113.5 -71.5 187.5 -71.5c72.667 0 134.167 23.833 184.5 71.5s75.5 122.834 75.5 225.501v860c0 30 -15 45 -45 45h-357v127h420c44 0 75.833 -10 95.5 -30s29.5 -51.667 29.5 -95v-912
c0 -144.667 -39.5 -252.167 -118.5 -322.5s-174.5 -105.5 -286.5 -105.5s-207.667 35.5 -287 106.5s-119 178.167 -119 321.5zM332 1540l170 244h143l170 -244h-129l-111 166h-4l-110 -166h-129z" />
    <glyph glyph-name="jcircumflex" unicode="&#x135;" horiz-adv-x="546" 
d="M12 1196l172 244h142l172 -244h-129l-115 168l-113 -168h-129zM-43 -295c12 -2.66699 27.002 -3.99805 45.002 -3.99805c24.667 0 48.667 3 72 9s48.166 17.333 74.499 34s47.5 44 63.5 82s24 84.333 24 139v901c0 30 -16 45 -48 45h-84v119h144
c45.333 0 77.5 -8.83301 96.5 -26.5s28.5 -48.5 28.5 -92.5v-950c0 -65.333 -9 -122.333 -27 -171s-39.5 -85.834 -64.5 -111.501s-55 -46.834 -90 -63.501s-65.833 -27 -92.5 -31s-54.334 -6 -83.001 -6l-59 6v121z" />
    <glyph glyph-name="Kcommaaccent" unicode="&#x136;" horiz-adv-x="1208" 
d="M219 0l0.00390625 1268c0 30 -15 45 -45 45h-88v127h152c44 0 75.667 -10 95 -30s29 -51.667 29 -95v-500h173c60 0 100 17 120 51l349 574h163l-370 -604c-24.667 -39.333 -49.334 -66 -74.001 -80v-4c23.333 -8 46.666 -35.333 69.999 -82l249 -496
c9.33301 -20.667 21.666 -33.667 36.999 -39s38 -8 68 -8h41v-127h-76c-60 0 -102.333 6.5 -127 19.5s-48.667 42.833 -72 89.5l-262 526c-16.667 35.333 -60.334 53 -131.001 53h-158v-688h-143zM573.004 -129l127 0.000976562c9.33301 -32.667 14.333 -65.334 15 -98.001
c0 -49.333 -16.333 -110.333 -49 -183h-109c26 65.333 39 120 39 164c0 38.667 -7.66699 77.667 -23 117z" />
    <glyph glyph-name="kcommaaccent" unicode="&#x137;" horiz-adv-x="1019" 
d="M172 0v1274c0 30 -15 45 -45 45h-86v121h145c45.333 0 77.5 -9 96.5 -27s28.5 -48.667 28.5 -92v-684h107c52 0 91 16.333 117 49l264 344h170l-297 -377c-15.333 -19.333 -29.5 -35 -42.5 -47s-22.167 -19.333 -27.5 -22l-8 -4v-5
c20.667 -9.33301 41.667 -34.333 63 -75l187 -334c9.33301 -18 20.5 -30 33.5 -36s33.167 -9 60.5 -9h55v-121h-96c-52 0 -88.833 6.5 -110.5 19.5s-44.167 40.5 -67.5 82.5l-205 369c-16.667 30 -52.667 45 -108 45h-95v-516h-139zM473 -129l127 0.000976562
c9.33301 -32.667 14 -65.334 14 -98.001c0 -49.333 -16.333 -110.333 -49 -183h-108c26 65.333 39 120 39 164c0 38.667 -7.66699 77.667 -23 117z" />
    <glyph glyph-name="kgreenlandic" unicode="&#x138;" horiz-adv-x="1019" 
d="M172 0l0.000976562 864c0 30 -15 45 -45 45h-86v121h145c45.333 0 77.5 -8.83301 96.5 -26.5s28.5 -48.5 28.5 -92.5v-321h107c53.333 0 92.333 16.333 117 49l280 391h168l-313 -422c-32.667 -44 -57.334 -68.333 -74.001 -73v-5c18 -8 38.333 -33 61 -75l162 -289
c9.33301 -18 20.5 -30 33.5 -36s33.167 -9 60.5 -9h66v-121h-107c-52 0 -88.833 6.5 -110.5 19.5s-44.167 40.5 -67.5 82.5l-180 322c-16.667 30 -52.667 45 -108 45h-95v-469h-139z" />
    <glyph glyph-name="Lacute" unicode="&#x139;" horiz-adv-x="1085" 
d="M219 125v1143c0 30 -15 45 -45 45h-88v127h152c44 0 75.667 -10 95 -30s29 -51.667 29 -95v-1143c0 -30 15.333 -45 46 -45h477c30 0 45 15 45 45v96h135v-143c0 -44 -9.83301 -75.833 -29.5 -95.5s-51.5 -29.5 -95.5 -29.5h-596c-44 -0 -75.833 9.83301 -95.5 29.5
s-29.5 51.5 -29.5 95.5zM236 1540l143 244h156l-179 -244h-120z" />
    <glyph glyph-name="lacute" unicode="&#x13a;" horiz-adv-x="501" 
d="M176 125v1149c0 30 -15 45 -45 45h-86v121h145c44 0 75.833 -10 95.5 -30s29.5 -51.667 29.5 -95v-1149c0 -30 15 -45 45 -45h86v-121h-145c-44 -0 -75.833 9.83301 -95.5 29.5s-29.5 51.5 -29.5 95.5zM154 1540l143 244h156l-179 -244h-120z" />
    <glyph glyph-name="Lcommaaccent" unicode="&#x13b;" horiz-adv-x="1085" 
d="M219 125v1143c0 30 -15 45 -45 45h-88v127h152c44 0 75.667 -10 95 -30s29 -51.667 29 -95v-1143c0 -30 15.333 -45 46 -45h477c30 0 45 15 45 45v96h135v-143c0 -44 -9.83301 -75.833 -29.5 -95.5s-51.5 -29.5 -95.5 -29.5h-596c-44 -0 -75.833 9.83301 -95.5 29.5
s-29.5 51.5 -29.5 95.5zM571 -129l127 0.000976562c9.33301 -32.667 14.333 -65.334 15 -98.001c0 -49.333 -16.333 -110.333 -49 -183h-109c26 65.333 39 120 39 164c0 38.667 -7.66699 77.667 -23 117z" />
    <glyph glyph-name="lcommaaccent" unicode="&#x13c;" horiz-adv-x="501" 
d="M176 125v1149c0 30 -15 45 -45 45h-86v121h145c44 0 75.833 -10 95.5 -30s29.5 -51.667 29.5 -95v-1149c0 -30 15 -45 45 -45h86v-121h-145c-44 -0 -75.833 9.83301 -95.5 29.5s-29.5 51.5 -29.5 95.5zM211 -129l126.999 0.000976562
c9.33301 -32.667 14 -65.334 14 -98.001c0 -49.333 -16.333 -110.333 -49 -183h-108c26 65.333 38.667 120 38 164c0.666992 38.667 -6.66602 77.667 -21.999 117z" />
    <glyph glyph-name="Lcaron" unicode="&#x13d;" horiz-adv-x="1085" 
d="M219 125v1143c0 30 -15 45 -45 45h-88v127h152c44 0 75.667 -10 95 -30s29 -51.667 29 -95v-1143c0 -30 15.333 -45 46 -45h477c30 0 45 15 45 45v96h135v-143c0 -44 -9.83301 -75.833 -29.5 -95.5s-51.5 -29.5 -95.5 -29.5h-596c-44 -0 -75.833 9.83301 -95.5 29.5
s-29.5 51.5 -29.5 95.5zM549 1440h126.999c9.33301 -32.667 14 -65.667 14 -99c0 -49.333 -16.333 -110 -49 -182h-109c26 65.333 39 120 39 164c0.666992 38.667 -6.66602 77.667 -21.999 117z" />
    <glyph glyph-name="lcaron" unicode="&#x13e;" horiz-adv-x="651" 
d="M176 125v1149c0 30 -15 45 -45 45h-86v121h145c44 0 75.833 -10 95.5 -30s29.5 -51.667 29.5 -95v-1149c0 -30 15 -45 45 -45h86v-121h-145c-44 -0 -75.833 9.83301 -95.5 29.5s-29.5 51.5 -29.5 95.5zM442 1440h127c9.33301 -32.667 14.333 -65.667 15 -99
c0 -49.333 -16.333 -110 -49 -182h-109c26 65.333 39 120 39 164c0 38.667 -7.66699 77.667 -23 117z" />
    <glyph glyph-name="Ldot" unicode="&#x13f;" horiz-adv-x="1085" 
d="M219 125v1143c0 30 -15 45 -45 45h-88v127h152c44 0 75.667 -10 95 -30s29 -51.667 29 -95v-1143c0 -30 15.333 -45 46 -45h477c30 0 45 15 45 45v96h135v-143c0 -44 -9.83301 -75.833 -29.5 -95.5s-51.5 -29.5 -95.5 -29.5h-596c-44 -0 -75.833 9.83301 -95.5 29.5
s-29.5 51.5 -29.5 95.5zM616 680v164h158v-164h-158z" />
    <glyph glyph-name="ldot" unicode="&#x140;" horiz-adv-x="624" 
d="M176 125v1149c0 30 -15 45 -45 45h-86v121h145c44 0 75.833 -10 95.5 -30s29.5 -51.667 29.5 -95v-1149c0 -30 15 -45 45 -45h86v-121h-145c-44 -0 -75.833 9.83301 -95.5 29.5s-29.5 51.5 -29.5 95.5zM457 680v164h157v-164h-157z" />
    <glyph glyph-name="Lslash" unicode="&#x141;" horiz-adv-x="1085" 
d="M219 125v567l-133 -74v144l133 76v430c0 30 -15 45 -45 45h-88v127h152c44 0 75.667 -10 95 -30s29 -51.667 29 -95v-395l224 131v-148l-224 -129v-602c0 -30 15.333 -45 46 -45h477c30 0 45 15 45 45v96h135v-143c0 -44 -9.83301 -75.833 -29.5 -95.5
s-51.5 -29.5 -95.5 -29.5h-596c-44 -0 -75.833 9.83301 -95.5 29.5s-29.5 51.5 -29.5 95.5z" />
    <glyph glyph-name="lslash" unicode="&#x142;" horiz-adv-x="546" 
d="M207 125v602l-174 -98v145l174 100v400c0 30 -15 45 -45 45h-86v121h145c44 0 75.833 -10 95.5 -30s29.5 -51.667 29.5 -95v-361l170 99v-148l-170 -98v-641c0 -30 15 -45 45 -45h86v-121h-145c-44 -0 -75.833 9.83301 -95.5 29.5s-29.5 51.5 -29.5 95.5z" />
    <glyph glyph-name="Nacute" unicode="&#x143;" horiz-adv-x="1556" 
d="M86 0v127h88c30 0 45 15 45 45v1268h131l735 -1026l117 -189h4c-6.66699 75.333 -10 138.333 -10 189v901c0 44 9.83301 75.833 29.5 95.5s51.5 29.5 95.5 29.5h152v-127h-89c-30 0 -45 -15 -45 -45v-1268h-131l-735 1026l-119 186h-4c8 -74 12 -136 12 -186v-901
c0 -44 -9.83301 -75.833 -29.5 -95.5s-51.167 -29.5 -94.5 -29.5h-152zM739 1540l144 244h155l-178 -244h-121z" />
    <glyph glyph-name="nacute" unicode="&#x144;" horiz-adv-x="1245" 
d="M178 0l0.000976562 863.999c0 30 -15 45 -45 45h-86v121h143c83.333 0 125 -38.333 125 -115v-47l-4 -73h4c24.667 62.667 72.167 121.667 142.5 177s159.5 83 267.5 83c124 0 212.667 -33.5 266 -100.5s80 -166.833 80 -299.5v-489c0 -30 15 -45 45 -45h86v-121h-145
c-44 0 -75.833 9.83301 -95.5 29.5s-29.5 51.5 -29.5 95.5v493c0 96.667 -14.667 171.834 -44 225.501s-89 80.5 -179 80.5c-87.333 0 -165.833 -27 -235.5 -81s-116.167 -124 -139.5 -210c-10.667 -38 -16.334 -84.333 -17.001 -139v-494h-139zM588.001 1196l143 244h156
l-178 -244h-121z" />
    <glyph glyph-name="Ncommaaccent" unicode="&#x145;" horiz-adv-x="1556" 
d="M86 0v127h88c30 0 45 15 45 45v1268h131l735 -1026l117 -189h4c-6.66699 75.333 -10 138.333 -10 189v901c0 44 9.83301 75.833 29.5 95.5s51.5 29.5 95.5 29.5h152v-127h-89c-30 0 -45 -15 -45 -45v-1268h-131l-735 1026l-119 186h-4c8 -74 12 -136 12 -186v-901
c0 -44 -9.83301 -75.833 -29.5 -95.5s-51.167 -29.5 -94.5 -29.5h-152zM705 -129l125.999 0.000976562c9.33301 -32.667 14.333 -65.334 15 -98.001c0 -49.333 -16.333 -110.333 -49 -183h-109c26 65.333 39 120 39 164c0.666992 38.667 -6.66602 77.667 -21.999 117z" />
    <glyph glyph-name="ncommaaccent" unicode="&#x146;" horiz-adv-x="1245" 
d="M178 0l0.000976562 863.999c0 30 -15 45 -45 45h-86v121h143c83.333 0 125 -38.333 125 -115v-47l-4 -73h4c24.667 62.667 72.167 121.667 142.5 177s159.5 83 267.5 83c124 0 212.667 -33.5 266 -100.5s80 -166.833 80 -299.5v-489c0 -30 15 -45 45 -45h86v-121h-145
c-44 0 -75.833 9.83301 -95.5 29.5s-29.5 51.5 -29.5 95.5v493c0 96.667 -14.667 171.834 -44 225.501s-89 80.5 -179 80.5c-87.333 0 -165.833 -27 -235.5 -81s-116.167 -124 -139.5 -210c-10.667 -38 -16.334 -84.333 -17.001 -139v-494h-139zM588.001 -129.001
l126.999 0.000976562c9.33301 -32.667 14 -65.334 14 -98.001c0 -49.333 -16.333 -110.333 -49 -183h-109c26 65.333 39 120 39 164c0.666992 38.667 -6.66602 77.667 -21.999 117z" />
    <glyph glyph-name="Ncaron" unicode="&#x147;" horiz-adv-x="1556" 
d="M86 0v127h88c30 0 45 15 45 45v1268h131l735 -1026l117 -189h4c-6.66699 75.333 -10 138.333 -10 189v901c0 44 9.83301 75.833 29.5 95.5s51.5 29.5 95.5 29.5h152v-127h-89c-30 0 -45 -15 -45 -45v-1268h-131l-735 1026l-119 186h-4c8 -74 12 -136 12 -186v-901
c0 -44 -9.83301 -75.833 -29.5 -95.5s-51.167 -29.5 -94.5 -29.5h-152zM729 1540l-172 244h131l111 -164h4l110 164h129l-172 -244h-141z" />
    <glyph glyph-name="ncaron" unicode="&#x148;" horiz-adv-x="1245" 
d="M178 0l0.000976562 863.999c0 30 -15 45 -45 45h-86v121h143c83.333 0 125 -38.333 125 -115v-47l-4 -73h4c24.667 62.667 72.167 121.667 142.5 177s159.5 83 267.5 83c124 0 212.667 -33.5 266 -100.5s80 -166.833 80 -299.5v-489c0 -30 15 -45 45 -45h86v-121h-145
c-44 0 -75.833 9.83301 -95.5 29.5s-29.5 51.5 -29.5 95.5v493c0 96.667 -14.667 171.834 -44 225.501s-89 80.5 -179 80.5c-87.333 0 -165.833 -27 -235.5 -81s-116.167 -124 -139.5 -210c-10.667 -38 -16.334 -84.333 -17.001 -139v-494h-139zM578.001 1196l-172 244h131
l110 -164h4l111 164h129l-172 -244h-141z" />
    <glyph glyph-name="napostrophe" unicode="&#x149;" horiz-adv-x="1294" 
d="M227 0v863.999c0 30 -15 45 -45 45h-86v121h144c83.333 0 125 -38.333 125 -115v-47l-5 -73h5c24.667 62.667 72 121.667 142 177s159 83 267 83c124 0 212.667 -33.5 266 -100.5s80 -166.833 80 -299.5v-489c0 -30 15 -45 45 -45h86v-121h-145
c-44 0 -75.833 9.83301 -95.5 29.5s-29.5 51.5 -29.5 95.5v493c0 96.667 -14.667 171.834 -44 225.501s-89 80.5 -179 80.5c-87.333 0 -165.833 -27 -235.5 -81s-116.167 -124 -139.5 -210c-10.667 -38 -16 -84.333 -16 -139v-494h-140zM-2 1440h126.999
c9.33301 -32.667 14 -65.667 14 -99c0 -49.333 -16.333 -110 -49 -182h-108c26 65.333 38.667 120 38 164c0.666992 38.667 -6.66602 77.667 -21.999 117z" />
    <glyph glyph-name="Eng" unicode="&#x14a;" horiz-adv-x="1556" 
d="M86 0l0.000976562 127h88c30 0 45 15 45 45v1268h131l735 -1026l117 -189h4c-6.66699 75.333 -10 138.333 -10 189v901c0 44 9.83301 75.833 29.5 95.5s51.5 29.5 95.5 29.5h152v-127h-89c-30 0 -45 -15 -45 -45v-1243c0 -82 -12.5 -152.667 -37.5 -212
s-58.667 -105.5 -101 -138.5s-87.5 -57 -135.5 -72s-99.333 -22.5 -154 -22.5v133c75.333 0 141.666 24 198.999 72s86 121.667 86 221v14l-723 1006l-119 186h-4c8 -74 12 -136 12 -186v-901c0 -44 -9.83301 -75.833 -29.5 -95.5s-51.167 -29.5 -94.5 -29.5h-152z" />
    <glyph glyph-name="eng" unicode="&#x14b;" horiz-adv-x="1234" 
d="M178 0l0.000976562 864.003c0 30 -15 45 -45 45h-86v121h143c83.333 0 125 -38.333 125 -115v-47l-4 -73h4c24.667 62.667 72.167 121.667 142.5 177s159.5 83 267.5 83c124 0 212.667 -33.5 266 -100.5s80 -166.833 80 -299.5v-702
c0 -80.667 -12.667 -148.334 -38 -203.001s-58.5 -93.834 -99.5 -117.501s-78.833 -40 -113.5 -49s-70.334 -13.5 -107.001 -13.5l-60 6v121c12 -1.33301 27 -2 45 -2c24.667 0 48.667 3 72 9s48.333 17.167 75 33.5s47.834 43.666 63.501 81.999s23.5 84.833 23.5 139.5
v659c0 96.667 -14.667 171.834 -44 225.501s-89 80.5 -179 80.5c-87.333 0 -165.833 -27.333 -235.5 -82s-116.167 -125 -139.5 -211c-10.667 -36.667 -16.334 -82.334 -17.001 -137.001v-494h-139z" />
    <glyph glyph-name="Omacron" unicode="&#x14c;" horiz-adv-x="1619" 
d="M78 729c0 206 71 380 213 522s315.333 213 520 213s378 -71 520 -213s213 -316 213 -522c0 -210 -71.333 -388.167 -214 -534.5s-315.667 -219.5 -519 -219.5c-204.667 0 -378 73.167 -520 219.5s-213 324.5 -213 534.5zM227 729
c0 -173.333 56.667 -319.666 170 -438.999s251.333 -179 414 -179c161.333 0 299 59.667 413 179s171 265.666 171 438.999c0 169.333 -56.667 311.666 -170 426.999s-251.333 173 -414 173s-300.667 -57.667 -414 -173s-170 -257.666 -170 -426.999zM553 1608v110h504v-110
h-504z" />
    <glyph glyph-name="omacron" unicode="&#x14d;" horiz-adv-x="1251" 
d="M82 520c0 151.333 52.832 278.333 158.499 381s233.834 154 384.501 154c151.333 0 279.833 -51.167 385.5 -153.5s158.5 -229.5 158.5 -381.5c0 -154 -52.833 -283.333 -158.5 -388s-233.5 -157 -383.5 -157c-151.333 0 -280 52.333 -386 157s-159 234 -159 388z
M224.999 520c0 -118.667 39 -218.334 117 -299.001s173 -121 285 -121c110.667 0 204.834 40.333 282.501 121s116.5 180.334 116.5 299.001c0 116 -38.833 213 -116.5 291s-171.834 117 -282.501 117c-112 0 -207 -39 -285 -117s-117 -175 -117 -291zM374.999 1264v110h504
v-110h-504z" />
    <glyph glyph-name="Obreve" unicode="&#x14e;" horiz-adv-x="1619" 
d="M78 729c0 206 71 380 213 522s315.333 213 520 213s378 -71 520 -213s213 -316 213 -522c0 -210 -71.333 -388.167 -214 -534.5s-315.667 -219.5 -519 -219.5c-204.667 0 -378 73.167 -520 219.5s-213 324.5 -213 534.5zM227 729
c0 -173.333 56.667 -319.666 170 -438.999s251.333 -179 414 -179c161.333 0 299 59.667 413 179s171 265.666 171 438.999c0 169.333 -56.667 311.666 -170 426.999s-251.333 173 -414 173s-300.667 -57.667 -414 -173s-170 -257.666 -170 -426.999zM805 1534
c-62.667 0 -117.332 19.5 -163.999 58.5s-70 92.5 -70 160.5v31h107v-27c0 -42 12 -73.667 36 -95s54.333 -32 91 -32c35.333 0 65 10.667 89 32s36 53 36 95v27h106v-31c0 -68 -22.833 -121.5 -68.5 -160.5s-99.834 -58.5 -162.501 -58.5z" />
    <glyph glyph-name="obreve" unicode="&#x14f;" horiz-adv-x="1251" 
d="M82 520c0 151.333 52.832 278.333 158.499 381s233.834 154 384.501 154c151.333 0 279.833 -51.167 385.5 -153.5s158.5 -229.5 158.5 -381.5c0 -154 -52.833 -283.333 -158.5 -388s-233.5 -157 -383.5 -157c-151.333 0 -280 52.333 -386 157s-159 234 -159 388z
M224.999 520c0 -118.667 39 -218.334 117 -299.001s173 -121 285 -121c110.667 0 204.834 40.333 282.501 121s116.5 180.334 116.5 299.001c0 116 -38.833 213 -116.5 291s-171.834 117 -282.501 117c-112 0 -207 -39 -285 -117s-117 -175 -117 -291zM626.499 1190
c-63 0 -117.667 19.5 -164 58.5s-69.5 92.5 -69.5 160.5v31h107v-27c0 -42 11.833 -73.667 35.5 -95s54.167 -32 91.5 -32c35.333 0 65 10.667 89 32s36 53 36 95v27h106v-31c0 -68 -22.833 -121.5 -68.5 -160.5s-100 -58.5 -163 -58.5z" />
    <glyph glyph-name="Ohungarumlaut" unicode="&#x150;" horiz-adv-x="1619" 
d="M78 729c0 206 71 380 213 522s315.333 213 520 213s378 -71 520 -213s213 -316 213 -522c0 -210 -71.333 -388.167 -214 -534.5s-315.667 -219.5 -519 -219.5c-204.667 0 -378 73.167 -520 219.5s-213 324.5 -213 534.5zM227 729
c0 -173.333 56.667 -319.666 170 -438.999s251.333 -179 414 -179c161.333 0 299 59.667 413 179s171 265.666 171 438.999c0 169.333 -56.667 311.666 -170 426.999s-251.333 173 -414 173s-300.667 -57.667 -414 -173s-170 -257.666 -170 -426.999zM877 1540l143 244h156
l-179 -244h-120zM604 1540l135 244h133l-137 -244h-131z" />
    <glyph glyph-name="ohungarumlaut" unicode="&#x151;" horiz-adv-x="1251" 
d="M82 520c0 151.333 52.832 278.333 158.499 381s233.834 154 384.501 154c151.333 0 279.833 -51.167 385.5 -153.5s158.5 -229.5 158.5 -381.5c0 -154 -52.833 -283.333 -158.5 -388s-233.5 -157 -383.5 -157c-151.333 0 -280 52.333 -386 157s-159 234 -159 388z
M224.999 520c0 -118.667 39 -218.334 117 -299.001s173 -121 285 -121c110.667 0 204.834 40.333 282.501 121s116.5 180.334 116.5 299.001c0 116 -38.833 213 -116.5 291s-171.834 117 -282.501 117c-112 0 -207 -39 -285 -117s-117 -175 -117 -291zM697.999 1196l144 244
h155l-178 -244h-121zM425.999 1196l135 244h133l-137 -244h-131z" />
    <glyph glyph-name="OE" unicode="&#x152;" horiz-adv-x="1863" 
d="M78 721c0 208.667 65.834 384 197.501 526s297.167 213 496.5 213c34 0 85.167 -3.33301 153.5 -10s114.166 -10 137.499 -10h565c44 0 75.833 -10 95.5 -30s29.5 -51.667 29.5 -95v-144h-133v97c0 30 -15 45 -45 45h-477v-525h524v-126h-524v-535h536c30 0 45 15 45 45
v96h133v-143c0 -83.333 -38 -125 -114 -125h-633c-23.333 0 -69.5 -3.33301 -138.5 -10s-120.5 -10 -154.5 -10c-199.333 0 -364.833 71 -496.5 213s-197.5 318 -197.5 528zM227.001 721c0 -174.667 50.167 -319 150.5 -433s231.833 -171 394.5 -171
c79.333 0 140 4.66699 182 14v1176c-48 10.667 -108.667 16 -182 16c-161.333 0 -292.5 -57 -393.5 -171s-151.5 -257.667 -151.5 -431z" />
    <glyph glyph-name="oe" unicode="&#x153;" horiz-adv-x="2068" 
d="M82 512c0 160 52.4951 290.5 157.495 391.5s233.5 151.5 385.5 151.5c102.667 0 194.834 -24.667 276.501 -74s145.167 -117 190.5 -203h4c39.333 87.333 97.5 155.333 174.5 204s165.5 73 265.5 73c136.667 0 242.834 -45.5 318.501 -136.5s113.5 -203.833 113.5 -338.5
l-4 -70h-790c5.33301 -128.667 45.833 -229.167 121.5 -301.5s168.167 -108.5 277.5 -108.5c113.333 0 213 39 299 117l10 10l68 -104c-10.667 -10.667 -26.667 -24.334 -48 -41.001s-65.166 -38.667 -131.499 -66s-134.166 -41 -203.499 -41c-106.667 0 -201 25 -283 75
s-144 118.667 -186 206h-4c-44 -87.333 -107 -156 -189 -206s-175.333 -75 -280 -75c-151.333 0 -279.666 49.833 -384.999 149.5s-158 228.834 -158 387.501zM1180 621h645c-5.33301 102.667 -35 181.167 -89 235.5s-121.333 81.5 -202 81.5
c-88.667 0 -165.667 -27.833 -231 -83.5s-106.333 -133.5 -123 -233.5zM224.995 512c0 -121.333 38.668 -220.332 116.001 -296.999s172 -115 284 -115s206.5 39 283.5 117s115.5 179 115.5 303c0 121.333 -38.833 219.666 -116.5 294.999s-171.834 113 -282.501 113
c-112 0 -206.667 -38.667 -284 -116s-116 -177.333 -116 -300z" />
    <glyph glyph-name="Racute" unicode="&#x154;" horiz-adv-x="1239" 
d="M219 0l0.000976562 1313h-133v127h610c121.333 0 220.666 -37.167 297.999 -111.5s116 -173.833 116 -298.5c0 -105.333 -27.333 -191.666 -82 -258.999s-120.334 -109.333 -197.001 -126v-4c19.333 -10.667 36 -29.667 50 -57l206 -410
c9.33301 -20.667 21.666 -33.667 36.999 -39s37.333 -8 66 -8h29v-127h-64c-60 0 -102.333 6.5 -127 19.5s-48.667 42.833 -72 89.5l-206 411c-19.333 36.667 -38.166 60.167 -56.499 70.5s-48.166 15.5 -89.499 15.5h-242v-606h-143zM362.001 732.999h320
c86 0 154 26.333 204 79s75 124 75 214c0 88.667 -25 158.667 -75 210s-117.333 77 -202 77h-322v-580zM518.001 1540l144 244h155l-178 -244h-121z" />
    <glyph glyph-name="racute" unicode="&#x155;" horiz-adv-x="739" 
d="M178 0l0.000976562 864c0 30 -15 45 -45 45h-86v121h143c83.333 0 125 -39 125 -117v-69l-4 -78h4c26 82 67.333 148.167 124 198.5s124 75.5 202 75.5l55 -6v-137c-16.667 2.66699 -33.667 4 -51 4c-70.667 0 -132.334 -24.5 -185.001 -73.5
s-90.667 -113.167 -114 -192.5c-19.333 -61.333 -29 -128.333 -29 -201v-434h-139zM317.001 1196l144 244h155l-178 -244h-121z" />
    <glyph glyph-name="Rcommaaccent" unicode="&#x156;" horiz-adv-x="1239" 
d="M219 0l0.000976562 1313h-133v127h610c121.333 0 220.666 -37.167 297.999 -111.5s116 -173.833 116 -298.5c0 -105.333 -27.333 -191.666 -82 -258.999s-120.334 -109.333 -197.001 -126v-4c19.333 -10.667 36 -29.667 50 -57l206 -410
c9.33301 -20.667 21.666 -33.667 36.999 -39s37.333 -8 66 -8h29v-127h-64c-60 0 -102.333 6.5 -127 19.5s-48.667 42.833 -72 89.5l-206 411c-19.333 36.667 -38.166 60.167 -56.499 70.5s-48.166 15.5 -89.499 15.5h-242v-606h-143zM362.001 732.999h320
c86 0 154 26.333 204 79s75 124 75 214c0 88.667 -25 158.667 -75 210s-117.333 77 -202 77h-322v-580zM610.001 -129.001l127 0.000976562c9.33301 -32.667 14.333 -65.334 15 -98.001c0 -49.333 -16.667 -110.333 -50 -183h-108c26 65.333 39 120 39 164
c0 38.667 -7.66699 77.667 -23 117z" />
    <glyph glyph-name="rcommaaccent" unicode="&#x157;" horiz-adv-x="739" 
d="M178 0l0.000976562 864c0 30 -15 45 -45 45h-86v121h143c83.333 0 125 -39 125 -117v-69l-4 -78h4c26 82 67.333 148.167 124 198.5s124 75.5 202 75.5l55 -6v-137c-16.667 2.66699 -33.667 4 -51 4c-70.667 0 -132.334 -24.5 -185.001 -73.5
s-90.667 -113.167 -114 -192.5c-19.333 -61.333 -29 -128.333 -29 -201v-434h-139zM190.001 -129l127 0.000976562c9.33301 -32.667 14.333 -65.334 15 -98.001c0 -49.333 -16.333 -110.333 -49 -183h-109c26 65.333 39 120 39 164c0 38.667 -7.66699 77.667 -23 117z" />
    <glyph glyph-name="Rcaron" unicode="&#x158;" horiz-adv-x="1239" 
d="M219 0l0.000976562 1313h-133v127h610c121.333 0 220.666 -37.167 297.999 -111.5s116 -173.833 116 -298.5c0 -105.333 -27.333 -191.666 -82 -258.999s-120.334 -109.333 -197.001 -126v-4c19.333 -10.667 36 -29.667 50 -57l206 -410
c9.33301 -20.667 21.666 -33.667 36.999 -39s37.333 -8 66 -8h29v-127h-64c-60 0 -102.333 6.5 -127 19.5s-48.667 42.833 -72 89.5l-206 411c-19.333 36.667 -38.166 60.167 -56.499 70.5s-48.166 15.5 -89.499 15.5h-242v-606h-143zM362.001 732.999h320
c86 0 154 26.333 204 79s75 124 75 214c0 88.667 -25 158.667 -75 210s-117.333 77 -202 77h-322v-580zM508.001 1540l-172 244h131l111 -164h4l110 164h129l-172 -244h-141z" />
    <glyph glyph-name="rcaron" unicode="&#x159;" horiz-adv-x="739" 
d="M178 0l0.000976562 864c0 30 -15 45 -45 45h-86v121h143c83.333 0 125 -39 125 -117v-69l-4 -78h4c26 82 67.333 148.167 124 198.5s124 75.5 202 75.5l55 -6v-137c-16.667 2.66699 -33.667 4 -51 4c-70.667 0 -132.334 -24.5 -185.001 -73.5
s-90.667 -113.167 -114 -192.5c-19.333 -61.333 -29 -128.333 -29 -201v-434h-139zM309.001 1196l-172 244h131l111 -164h4l111 164h129l-172 -244h-142z" />
    <glyph glyph-name="Sacute" unicode="&#x15a;" horiz-adv-x="1060" 
d="M76 180l88.0049 104.999c4 -4 9.83301 -10.167 17.5 -18.5s23.667 -22.666 48 -42.999s50.166 -38.166 77.499 -53.499s61.833 -29.333 103.5 -42s83.834 -19 126.501 -19c80.667 0 148.167 23.833 202.5 71.5s81.5 109.167 81.5 184.5
c0 65.333 -24.167 121.166 -72.5 167.499s-107.5 85.166 -177.5 116.499l-210 97c-70 33.333 -129.167 79.5 -177.5 138.5s-72.5 129.5 -72.5 211.5c0 102.667 40.833 189.667 122.5 261s187.5 107 317.5 107c54.667 0 109.667 -6.83301 165 -20.5
s106.5 -40.167 153.5 -79.5s70.5 -88.333 70.5 -147v-103h-135v68c0 42 -25 77.333 -75 106s-109 43 -177 43c-90 0 -161.667 -22.5 -215 -67.5s-80 -99.5 -80 -163.5c0 -39.333 10.167 -75.166 30.5 -107.499s47.333 -59 81 -80s71.667 -42.5 114 -64.5
s85.666 -41.833 129.999 -59.5s87.666 -39.5 129.999 -65.5s80.166 -53.667 113.499 -83s60.333 -66.833 81 -112.5s31 -97.167 31 -154.5c0 -112 -40 -206.333 -120 -283s-185.667 -115 -317 -115c-54.667 0 -107.834 7.16699 -159.501 21.5s-94.5 31.5 -128.5 51.5
s-64.333 39.833 -91 59.5s-46.334 37.167 -59.001 52.5zM481.005 1540l144 244h155l-178 -244h-121z" />
    <glyph glyph-name="sacute" unicode="&#x15b;" horiz-adv-x="901" 
d="M59 156l80.001 95.999c2.66699 -4 7.16699 -9.5 13.5 -16.5s19.666 -19.667 39.999 -38s41.833 -34.333 64.5 -48s52 -26 88 -37s73.333 -16.5 112 -16.5c61.333 0 112.833 14.333 154.5 43s62.5 69 62.5 121c0 40.667 -19.833 76.167 -59.5 106.5
s-87.834 56.333 -144.501 78s-113.334 44.834 -170.001 69.501s-104.834 59.167 -144.501 103.5s-59.5 97.166 -59.5 158.499c0 90 34.167 159 102.5 207s156.5 72 264.5 72c30 0 61.333 -3.16699 94 -9.5s66.167 -16 100.5 -29s62.666 -32.333 84.999 -58
s33.5 -55.834 33.5 -90.501v-88h-131v49c0 34 -19.167 60 -57.5 78s-78.5 27 -120.5 27c-152.667 0 -229 -50 -229 -150c0 -42 19.667 -78 59 -108s87.333 -55.667 144 -77s113.334 -44.166 170.001 -68.499s104.834 -59.166 144.501 -104.499s59.5 -99.333 59.5 -162
c0 -84.667 -34.167 -154 -102.5 -208s-154.166 -81 -257.499 -81c-151.333 0 -275.666 51.333 -372.999 154zM387.001 1196l143 244h156l-178 -244h-121z" />
    <glyph glyph-name="Scircumflex" unicode="&#x15c;" horiz-adv-x="1060" 
d="M76 180l88.0049 104.999c4 -4 9.83301 -10.167 17.5 -18.5s23.667 -22.666 48 -42.999s50.166 -38.166 77.499 -53.499s61.833 -29.333 103.5 -42s83.834 -19 126.501 -19c80.667 0 148.167 23.833 202.5 71.5s81.5 109.167 81.5 184.5
c0 65.333 -24.167 121.166 -72.5 167.499s-107.5 85.166 -177.5 116.499l-210 97c-70 33.333 -129.167 79.5 -177.5 138.5s-72.5 129.5 -72.5 211.5c0 102.667 40.833 189.667 122.5 261s187.5 107 317.5 107c54.667 0 109.667 -6.83301 165 -20.5
s106.5 -40.167 153.5 -79.5s70.5 -88.333 70.5 -147v-103h-135v68c0 42 -25 77.333 -75 106s-109 43 -177 43c-90 0 -161.667 -22.5 -215 -67.5s-80 -99.5 -80 -163.5c0 -39.333 10.167 -75.166 30.5 -107.499s47.333 -59 81 -80s71.667 -42.5 114 -64.5
s85.666 -41.833 129.999 -59.5s87.666 -39.5 129.999 -65.5s80.166 -53.667 113.499 -83s60.333 -66.833 81 -112.5s31 -97.167 31 -154.5c0 -112 -40 -206.333 -120 -283s-185.667 -115 -317 -115c-54.667 0 -107.834 7.16699 -159.501 21.5s-94.5 31.5 -128.5 51.5
s-64.333 39.833 -91 59.5s-46.334 37.167 -59.001 52.5zM301.005 1540l170 244h143l170 -244h-129l-110 166h-4l-111 -166h-129z" />
    <glyph glyph-name="scircumflex" unicode="&#x15d;" horiz-adv-x="901" 
d="M59 156l80.001 95.999c2.66699 -4 7.16699 -9.5 13.5 -16.5s19.666 -19.667 39.999 -38s41.833 -34.333 64.5 -48s52 -26 88 -37s73.333 -16.5 112 -16.5c61.333 0 112.833 14.333 154.5 43s62.5 69 62.5 121c0 40.667 -19.833 76.167 -59.5 106.5
s-87.834 56.333 -144.501 78s-113.334 44.834 -170.001 69.501s-104.834 59.167 -144.501 103.5s-59.5 97.166 -59.5 158.499c0 90 34.167 159 102.5 207s156.5 72 264.5 72c30 0 61.333 -3.16699 94 -9.5s66.167 -16 100.5 -29s62.666 -32.333 84.999 -58
s33.5 -55.834 33.5 -90.501v-88h-131v49c0 34 -19.167 60 -57.5 78s-78.5 27 -120.5 27c-152.667 0 -229 -50 -229 -150c0 -42 19.667 -78 59 -108s87.333 -55.667 144 -77s113.334 -44.166 170.001 -68.499s104.834 -59.166 144.501 -104.499s59.5 -99.333 59.5 -162
c0 -84.667 -34.167 -154 -102.5 -208s-154.166 -81 -257.499 -81c-151.333 0 -275.666 51.333 -372.999 154zM207.001 1196l170 244h143l170 -244h-129l-110 166h-5l-110 -166h-129z" />
    <glyph glyph-name="Scedilla" unicode="&#x15e;" horiz-adv-x="1060" 
d="M76 180l88.0039 105c4 -4 9.83301 -10.167 17.5 -18.5s23.667 -22.666 48 -42.999s50.166 -38.166 77.499 -53.499s61.833 -29.333 103.5 -42s83.834 -19 126.501 -19c80.667 0 148.167 23.833 202.5 71.5s81.5 109.167 81.5 184.5
c0 65.333 -24.167 121.166 -72.5 167.499s-107.5 85.166 -177.5 116.499l-210 97c-70 33.333 -129.167 79.5 -177.5 138.5s-72.5 129.5 -72.5 211.5c0 102.667 40.833 189.667 122.5 261s187.5 107 317.5 107c54.667 0 109.667 -6.83301 165 -20.5
s106.5 -40.167 153.5 -79.5s70.5 -88.333 70.5 -147v-103h-135v68c0 42 -25 77.333 -75 106s-109 43 -177 43c-90 0 -161.667 -22.5 -215 -67.5s-80 -99.5 -80 -163.5c0 -39.333 10.167 -75.166 30.5 -107.499s47.333 -59 81 -80s71.667 -42.5 114 -64.5
s85.666 -41.833 129.999 -59.5s87.666 -39.5 129.999 -65.5s80.166 -53.667 113.499 -83s60.333 -66.833 81 -112.5s31 -97.167 31 -154.5c0 -106.667 -36.5 -197.834 -109.5 -273.501s-171.167 -117.167 -294.5 -124.5l-16 -88c44 -6.66699 78.833 -22.667 104.5 -48
s38.5 -57.666 38.5 -96.999c0 -56 -18.667 -97 -56 -123s-84 -39 -140 -39l-101 10v99c26 -8 54 -12.333 84 -13c69.333 0 104.166 23.333 104.499 70s-38.5 70 -116.5 70l-31 -2l39 166c-148.667 13.333 -275 72.666 -379 177.999z" />
    <glyph glyph-name="scedilla" unicode="&#x15f;" horiz-adv-x="901" 
d="M59 156l80.0029 95.998c2.66699 -4 7.16699 -9.5 13.5 -16.5s19.666 -19.667 39.999 -38s41.833 -34.333 64.5 -48s52 -26 88 -37s73.333 -16.5 112 -16.5c61.333 0 112.833 14.333 154.5 43s62.5 69 62.5 121c0 40.667 -19.833 76.167 -59.5 106.5
s-87.834 56.333 -144.501 78s-113.334 44.834 -170.001 69.501s-104.834 59.167 -144.501 103.5s-59.5 97.166 -59.5 158.499c0 90 34.167 159 102.5 207s156.5 72 264.5 72c30 0 61.333 -3.16699 94 -9.5s66.167 -16 100.5 -29s62.666 -32.333 84.999 -58
s33.5 -55.834 33.5 -90.501v-88h-131v49c0 34 -19.167 60 -57.5 78s-78.5 27 -120.5 27c-152.667 0 -229 -50 -229 -150c0 -42 19.667 -78 59 -108s87.333 -55.667 144 -77s113.334 -44.166 170.001 -68.499s104.834 -59.166 144.501 -104.499s59.5 -99.333 59.5 -162
c0 -83.333 -32.333 -151.166 -97 -203.499s-147 -80.833 -247 -85.5l-16 -88c44 -6.66699 78.833 -22.667 104.5 -48s38.5 -57.666 38.5 -96.999c0 -56 -18.833 -97 -56.5 -123s-84.5 -39 -140.5 -39l-100 10v99c26 -8 54 -12.333 84 -13c69.333 0 104 23.333 104 70
s-38.667 70 -116 70l-31 -2l39 168c-126.667 15.333 -229.667 67.666 -309 156.999z" />
    <glyph glyph-name="Scaron" unicode="&#x160;" horiz-adv-x="1060" 
d="M76 180l88.0049 104.999c4 -4 9.83301 -10.167 17.5 -18.5s23.667 -22.666 48 -42.999s50.166 -38.166 77.499 -53.499s61.833 -29.333 103.5 -42s83.834 -19 126.501 -19c80.667 0 148.167 23.833 202.5 71.5s81.5 109.167 81.5 184.5
c0 65.333 -24.167 121.166 -72.5 167.499s-107.5 85.166 -177.5 116.499l-210 97c-70 33.333 -129.167 79.5 -177.5 138.5s-72.5 129.5 -72.5 211.5c0 102.667 40.833 189.667 122.5 261s187.5 107 317.5 107c54.667 0 109.667 -6.83301 165 -20.5
s106.5 -40.167 153.5 -79.5s70.5 -88.333 70.5 -147v-103h-135v68c0 42 -25 77.333 -75 106s-109 43 -177 43c-90 0 -161.667 -22.5 -215 -67.5s-80 -99.5 -80 -163.5c0 -39.333 10.167 -75.166 30.5 -107.499s47.333 -59 81 -80s71.667 -42.5 114 -64.5
s85.666 -41.833 129.999 -59.5s87.666 -39.5 129.999 -65.5s80.166 -53.667 113.499 -83s60.333 -66.833 81 -112.5s31 -97.167 31 -154.5c0 -112 -40 -206.333 -120 -283s-185.667 -115 -317 -115c-54.667 0 -107.834 7.16699 -159.501 21.5s-94.5 31.5 -128.5 51.5
s-64.333 39.833 -91 59.5s-46.334 37.167 -59.001 52.5zM473.005 1540l-172 244h131l111 -164h4l110 164h129l-172 -244h-141z" />
    <glyph glyph-name="scaron" unicode="&#x161;" horiz-adv-x="901" 
d="M59 156l80.001 95.999c2.66699 -4 7.16699 -9.5 13.5 -16.5s19.666 -19.667 39.999 -38s41.833 -34.333 64.5 -48s52 -26 88 -37s73.333 -16.5 112 -16.5c61.333 0 112.833 14.333 154.5 43s62.5 69 62.5 121c0 40.667 -19.833 76.167 -59.5 106.5
s-87.834 56.333 -144.501 78s-113.334 44.834 -170.001 69.501s-104.834 59.167 -144.501 103.5s-59.5 97.166 -59.5 158.499c0 90 34.167 159 102.5 207s156.5 72 264.5 72c30 0 61.333 -3.16699 94 -9.5s66.167 -16 100.5 -29s62.666 -32.333 84.999 -58
s33.5 -55.834 33.5 -90.501v-88h-131v49c0 34 -19.167 60 -57.5 78s-78.5 27 -120.5 27c-152.667 0 -229 -50 -229 -150c0 -42 19.667 -78 59 -108s87.333 -55.667 144 -77s113.334 -44.166 170.001 -68.499s104.834 -59.166 144.501 -104.499s59.5 -99.333 59.5 -162
c0 -84.667 -34.167 -154 -102.5 -208s-154.166 -81 -257.499 -81c-151.333 0 -275.666 51.333 -372.999 154zM379.001 1196l-172 244h131l111 -164h4l110 164h129l-172 -244h-141z" />
    <glyph glyph-name="Tcommaaccent" unicode="&#x162;" horiz-adv-x="1269" 
d="M1061 1313l-354 -0.000976562v-1313h-29l-21 -113c44 -6.66699 79 -22.667 105 -48s39 -57.666 39 -96.999c0 -56 -18.833 -97 -56.5 -123s-84.5 -39 -140.5 -39l-102 10v99c26 -8 54.667 -12.333 86 -13c69.333 0 104 23.333 104 70s-39 70 -117 70l-30 -2l43 186h-25
v1313h-356c-30 0 -45 -15 -45 -45v-97h-131v152c0 44 8.5 74.5 25.5 91.5s47.167 25.5 90.5 25.5h975c44 0 74.5 -8.5 91.5 -25.5s25.5 -47.5 25.5 -91.5v-152h-133v97c0 30 -15 45 -45 45z" />
    <glyph glyph-name="tcommaaccent" unicode="&#x163;" horiz-adv-x="686" 
d="M190 375l0.000976562 537.999h-135v117h138v285h137v-285h258v-117h-258v-524c0 -46.667 5.83301 -87 17.5 -121s25.667 -60.5 42 -79.5s35.333 -34 57 -45s41.334 -18.167 59.001 -21.5s36.167 -5 55.5 -5l47 4v-125c-16.667 -2.66699 -36.334 -4 -59.001 -4
c-34 0 -67.333 3.33301 -100 10l-21 -115c44 -6.66699 78.833 -22.667 104.5 -48s38.5 -57.666 38.5 -96.999c0 -56 -18.667 -97 -56 -123s-84 -39 -140 -39l-101 10v99c26 -8 54 -12.333 84 -13c69.333 0 104.166 23.333 104.499 70s-38.5 70 -116.5 70l-31 -2l52 215
c-118 56 -177 171.333 -177 346z" />
    <glyph glyph-name="Tcaron" unicode="&#x164;" horiz-adv-x="1269" 
d="M563 0v1313h-356c-30 0 -45 -15 -45 -45v-97h-131v152c0 44 8.5 74.5 25.5 91.5s47.167 25.5 90.5 25.5h975c44 0 74.5 -8.5 91.5 -25.5s25.5 -47.5 25.5 -91.5v-152h-133v97c0 30 -15 45 -45 45h-354v-1313h-144zM565 1540l-172 244h131l111 -164h4l111 164h129
l-172 -244h-142z" />
    <glyph glyph-name="tcaron" unicode="&#x165;" horiz-adv-x="712" 
d="M193 375l0.000976562 538.001h-136v117h138v285h137v-285h258v-117h-258v-524c0 -46.667 5.83301 -87 17.5 -121s25.667 -60.5 42 -79.5s35.333 -34 57 -45s41.5 -18.167 59.5 -21.5s36.333 -5 55 -5l47 4v-125c-16.667 -2.66699 -36.334 -4 -59.001 -4
c-28.667 0 -56.667 2 -84 6s-58.333 13.833 -93 29.5s-64.667 36.5 -90 62.5s-46.833 63.667 -64.5 113s-26.5 106.666 -26.5 171.999zM471.001 1440h127c9.33301 -32.667 14 -65.667 14 -99c0 -49.333 -16.333 -110 -49 -182h-108c26 65.333 39 120 39 164
c0 38.667 -7.66699 77.667 -23 117z" />
    <glyph glyph-name="Tbar" unicode="&#x166;" horiz-adv-x="1269" 
d="M563 0v664h-330v116h330v533h-356c-30 0 -45 -15 -45 -45v-97h-131v152c0 44 8.5 74.5 25.5 91.5s47.167 25.5 90.5 25.5h975c44 0 74.5 -8.5 91.5 -25.5s25.5 -47.5 25.5 -91.5v-152h-133v97c0 30 -15 45 -45 45h-354v-533h337v-116h-337v-664h-144z" />
    <glyph glyph-name="tbar" unicode="&#x167;" horiz-adv-x="686" 
d="M190 375l0.000976562 194.001h-135v109h135v235h-135v117h138v285h137v-285h258v-117h-258v-235h258v-109h-258v-184c0 -54.667 8.16699 -101.5 24.5 -140.5s37.5 -67 63.5 -84s50.167 -28.5 72.5 -34.5s45.833 -9 70.5 -9l47 4v-125
c-16.667 -2.66699 -36.334 -4 -59.001 -4c-28.667 0 -56.667 2 -84 6s-58.5 13.833 -93.5 29.5s-65 36.5 -90 62.5s-46.5 63.667 -64.5 113s-27 106.666 -27 171.999z" />
    <glyph glyph-name="Utilde" unicode="&#x168;" horiz-adv-x="1468" 
d="M203 494v774.001c0 30 -15 45 -45 45h-88v127h151c44 0 75.833 -10 95.5 -30s29.5 -51.667 29.5 -95v-815c0 -120 35.167 -214.833 105.5 -284.5s164.166 -104.5 281.499 -104.5c118.667 0 213.167 35.167 283.5 105.5s105.5 166.166 105.5 287.499v811
c0 44 10 75.833 30 95.5s51.667 29.5 95 29.5h152v-127h-88c-30 0 -45 -15 -45 -45v-774c0 -155.333 -48.833 -280.666 -146.5 -375.999s-225.667 -143 -384 -143s-286.666 47.667 -384.999 143s-147.5 220.666 -147.5 375.999zM414 1546c0 160 63.333 240.001 190 240.001
c39.333 0 73.833 -12.333 103.5 -37s56.667 -49.334 81 -74.001s48.833 -37 73.5 -37c54.667 0 82 47.333 82 142h109c0 -160 -63.667 -240 -191 -240c-39.333 0 -74 12.333 -104 37s-57 49 -81 73s-49 36 -75 36c-54.667 0 -82 -46.667 -82 -140h-106z" />
    <glyph glyph-name="utilde" unicode="&#x169;" horiz-adv-x="1234" 
d="M174 375l-0.000976562 489.002c0 30 -15 45 -45 45h-86v121h145c44 0 75.833 -9.5 95.5 -28.5s29.5 -49.833 29.5 -92.5v-497c0 -96.667 15 -171.834 45 -225.501s90.333 -80.5 181 -80.5c112 0 203.167 42.667 273.5 128s105.5 186.333 105.5 303v493h139v-864
c0 -30 15 -45 45 -45h86v-121h-141c-83.333 0 -125 38.333 -125 115v47l4 74h-4c-26 -62.667 -74.167 -121.834 -144.5 -177.501s-156.166 -83.5 -257.499 -83.5c-120 0 -207.667 32.833 -263 98.5s-83 166.167 -83 301.5zM280.999 1202c0 160 63.333 240 190 240
c39.333 0 73.666 -12.333 102.999 -37s56.333 -49.334 81 -74.001s49.334 -37 74.001 -37c54.667 0 82 47.333 82 142h109c0 -160 -63.667 -240 -191 -240c-39.333 0 -74 12.333 -104 37s-57 48.834 -81 72.501s-49 35.5 -75 35.5c-54.667 0 -82 -46.333 -82 -139h-106z" />
    <glyph glyph-name="Umacron" unicode="&#x16a;" horiz-adv-x="1468" 
d="M203 494v774.001c0 30 -15 45 -45 45h-88v127h151c44 0 75.833 -10 95.5 -30s29.5 -51.667 29.5 -95v-815c0 -120 35.167 -214.833 105.5 -284.5s164.166 -104.5 281.499 -104.5c118.667 0 213.167 35.167 283.5 105.5s105.5 166.166 105.5 287.499v811
c0 44 10 75.833 30 95.5s51.667 29.5 95 29.5h152v-127h-88c-30 0 -45 -15 -45 -45v-774c0 -155.333 -48.833 -280.666 -146.5 -375.999s-225.667 -143 -384 -143s-286.666 47.667 -384.999 143s-147.5 220.666 -147.5 375.999zM485 1608v110h504v-110h-504z" />
    <glyph glyph-name="umacron" unicode="&#x16b;" horiz-adv-x="1234" 
d="M174 375l-0.000976562 489.002c0 30 -15 45 -45 45h-86v121h145c44 0 75.833 -9.5 95.5 -28.5s29.5 -49.833 29.5 -92.5v-497c0 -96.667 15 -171.834 45 -225.501s90.333 -80.5 181 -80.5c112 0 203.167 42.667 273.5 128s105.5 186.333 105.5 303v493h139v-864
c0 -30 15 -45 45 -45h86v-121h-141c-83.333 0 -125 38.333 -125 115v47l4 74h-4c-26 -62.667 -74.167 -121.834 -144.5 -177.501s-156.166 -83.5 -257.499 -83.5c-120 0 -207.667 32.833 -263 98.5s-83 166.167 -83 301.5zM351.999 1264v110h504v-110h-504z" />
    <glyph glyph-name="Ubreve" unicode="&#x16c;" horiz-adv-x="1468" 
d="M203 494v774.001c0 30 -15 45 -45 45h-88v127h151c44 0 75.833 -10 95.5 -30s29.5 -51.667 29.5 -95v-815c0 -120 35.167 -214.833 105.5 -284.5s164.166 -104.5 281.499 -104.5c118.667 0 213.167 35.167 283.5 105.5s105.5 166.166 105.5 287.499v811
c0 44 10 75.833 30 95.5s51.667 29.5 95 29.5h152v-127h-88c-30 0 -45 -15 -45 -45v-774c0 -155.333 -48.833 -280.666 -146.5 -375.999s-225.667 -143 -384 -143s-286.666 47.667 -384.999 143s-147.5 220.666 -147.5 375.999zM737 1534
c-62.667 0 -117.167 19.5 -163.5 58.5s-69.5 92.5 -69.5 160.5v31h106v-27c0 -42 12 -73.667 36 -95s54.333 -32 91 -32c35.333 0 65 10.667 89 32s36 53 36 95v27h107v-31c0 -68 -23 -121.5 -69 -160.5s-100.333 -58.5 -163 -58.5z" />
    <glyph glyph-name="ubreve" unicode="&#x16d;" horiz-adv-x="1234" 
d="M174 375l-0.000976562 489.002c0 30 -15 45 -45 45h-86v121h145c44 0 75.833 -9.5 95.5 -28.5s29.5 -49.833 29.5 -92.5v-497c0 -96.667 15 -171.834 45 -225.501s90.333 -80.5 181 -80.5c112 0 203.167 42.667 273.5 128s105.5 186.333 105.5 303v493h139v-864
c0 -30 15 -45 45 -45h86v-121h-141c-83.333 0 -125 38.333 -125 115v47l4 74h-4c-26 -62.667 -74.167 -121.834 -144.5 -177.501s-156.166 -83.5 -257.499 -83.5c-120 0 -207.667 32.833 -263 98.5s-83 166.167 -83 301.5zM603.999 1190
c-62.667 0 -117.167 19.5 -163.5 58.5s-69.5 92.5 -69.5 160.5v31h106v-27c0 -42 12 -73.667 36 -95s54.333 -32 91 -32c35.333 0 65 10.667 89 32s36 53 36 95v27h107v-31c0 -68 -23 -121.5 -69 -160.5s-100.333 -58.5 -163 -58.5z" />
    <glyph glyph-name="Uring" unicode="&#x16e;" horiz-adv-x="1468" 
d="M203 494v774.001c0 30 -15 45 -45 45h-88v127h151c44 0 75.833 -10 95.5 -30s29.5 -51.667 29.5 -95v-815c0 -120 35.167 -214.833 105.5 -284.5s164.166 -104.5 281.499 -104.5c118.667 0 213.167 35.167 283.5 105.5s105.5 166.166 105.5 287.499v811
c0 44 10 75.833 30 95.5s51.667 29.5 95 29.5h152v-127h-88c-30 0 -45 -15 -45 -45v-774c0 -155.333 -48.833 -280.666 -146.5 -375.999s-225.667 -143 -384 -143s-286.666 47.667 -384.999 143s-147.5 220.666 -147.5 375.999zM737.5 1518
c-42.333 0 -78.166 13.5 -107.499 40.5s-44 61.667 -44 104s14.667 77.166 44 104.499s65.166 41 107.499 41s78.166 -13.667 107.499 -41s44 -62.166 44 -104.499s-14.667 -77 -44 -104s-65.166 -40.5 -107.499 -40.5zM737 1595c19.333 0 35.5 6.5 48.5 19.5
s19.5 29.167 19.5 48.5c0 20.667 -6.5 37.5 -19.5 50.5s-29 19.5 -48 19.5s-35 -6.5 -48 -19.5s-19.5 -29.833 -19.5 -50.5c0 -19.333 6 -35.5 18 -48.5s28.333 -19.5 49 -19.5z" />
    <glyph glyph-name="uring" unicode="&#x16f;" horiz-adv-x="1234" 
d="M174 375l-0.000976562 489.002c0 30 -15 45 -45 45h-86v121h145c44 0 75.833 -9.5 95.5 -28.5s29.5 -49.833 29.5 -92.5v-497c0 -96.667 15 -171.834 45 -225.501s90.333 -80.5 181 -80.5c112 0 203.167 42.667 273.5 128s105.5 186.333 105.5 303v493h139v-864
c0 -30 15 -45 45 -45h86v-121h-141c-83.333 0 -125 38.333 -125 115v47l4 74h-4c-26 -62.667 -74.167 -121.834 -144.5 -177.501s-156.166 -83.5 -257.499 -83.5c-120 0 -207.667 32.833 -263 98.5s-83 166.167 -83 301.5zM604.499 1174
c-42.333 0 -78.166 13.5 -107.499 40.5s-44 61.667 -44 104s14.667 77.166 44 104.499s65.166 41 107.499 41s78.166 -13.667 107.499 -41s44 -62.166 44 -104.499s-14.667 -77 -44 -104s-65.166 -40.5 -107.499 -40.5zM603.999 1251c19.333 0 35.5 6.5 48.5 19.5
s19.5 29.167 19.5 48.5c0 20.667 -6.5 37.5 -19.5 50.5s-29.167 19.5 -48.5 19.5s-35.333 -6.5 -48 -19.5s-19 -29.833 -19 -50.5c0 -19.333 6 -35.5 18 -48.5s28.333 -19.5 49 -19.5z" />
    <glyph glyph-name="Uhungarumlaut" unicode="&#x170;" horiz-adv-x="1468" 
d="M203 494v774.001c0 30 -15 45 -45 45h-88v127h151c44 0 75.833 -10 95.5 -30s29.5 -51.667 29.5 -95v-815c0 -120 35.167 -214.833 105.5 -284.5s164.166 -104.5 281.499 -104.5c118.667 0 213.167 35.167 283.5 105.5s105.5 166.166 105.5 287.499v811
c0 44 10 75.833 30 95.5s51.667 29.5 95 29.5h152v-127h-88c-30 0 -45 -15 -45 -45v-774c0 -155.333 -48.833 -280.666 -146.5 -375.999s-225.667 -143 -384 -143s-286.666 47.667 -384.999 143s-147.5 220.666 -147.5 375.999zM809 1540l143 244h156l-178 -244h-121z
M537 1540l135 244h133l-137 -244h-131z" />
    <glyph glyph-name="uhungarumlaut" unicode="&#x171;" horiz-adv-x="1234" 
d="M174 375l-0.000976562 489.002c0 30 -15 45 -45 45h-86v121h145c44 0 75.833 -9.5 95.5 -28.5s29.5 -49.833 29.5 -92.5v-497c0 -96.667 15 -171.834 45 -225.501s90.333 -80.5 181 -80.5c112 0 203.167 42.667 273.5 128s105.5 186.333 105.5 303v493h139v-864
c0 -30 15 -45 45 -45h86v-121h-141c-83.333 0 -125 38.333 -125 115v47l4 74h-4c-26 -62.667 -74.167 -121.834 -144.5 -177.501s-156.166 -83.5 -257.499 -83.5c-120 0 -207.667 32.833 -263 98.5s-83 166.167 -83 301.5zM675.999 1196l143 244h156l-178 -244h-121z
M402.999 1196l136 244h133l-137 -244h-132z" />
    <glyph glyph-name="Uogonek" unicode="&#x172;" horiz-adv-x="1468" 
d="M203 494v774.003c0 30 -15 45 -45 45h-88v127h151c44 0 75.833 -10 95.5 -30s29.5 -51.667 29.5 -95v-815c0 -120 35.167 -214.833 105.5 -284.5s164.166 -104.5 281.499 -104.5c118.667 0 213.167 35.167 283.5 105.5s105.5 166.166 105.5 287.499v811
c0 44 10 75.833 30 95.5s51.667 29.5 95 29.5h152v-127h-88c-30 0 -45 -15 -45 -45v-787c0 -199.333 -93 -350.666 -279 -453.999c-130 -75.333 -194.667 -152 -194 -230c0 -27.333 10.5 -49.5 31.5 -66.5s42.5 -26.833 64.5 -29.5l31 -6l-33 -115
c-5.33301 0 -13.166 0.666992 -23.499 2s-28.5 6.16602 -54.5 14.499s-48.833 18.666 -68.5 30.999s-37.667 30.666 -54 54.999s-24.5 53.166 -24.5 86.499c0 72.667 35.333 141.334 106 206.001v5c-15.333 -1.33301 -29 -2.33301 -41 -3c-155.333 0 -281.5 48 -378.5 144
s-145.5 220.333 -145.5 373z" />
    <glyph glyph-name="uogonek" unicode="&#x173;" horiz-adv-x="1234" 
d="M520 -25c-120 0 -207.665 32.8398 -262.998 98.5068s-83 166.167 -83 301.5v489c0 30 -15 45 -45 45h-86v121h145c53.333 0 87.5 -12.667 102.5 -38s22.5 -72 22.5 -140v-440c0 -96.667 15 -171.834 45 -225.501s90.333 -80.5 181 -80.5c112 0 203.167 42.667 273.5 128
s105.5 186.333 105.5 303v493h139v-864c0 -30 15 -45 45 -45h86v-121c-98 -79.333 -147.333 -147 -148 -203c0 -27.333 10.667 -49.5 32 -66.5s42.333 -26.833 63 -29.5l32 -6l-30 -115c-5.33301 0 -13.166 0.666992 -23.499 2s-28.5 6.16602 -54.5 14.499
s-48.833 18.666 -68.5 30.999s-37.834 30.666 -54.501 54.999s-25 53.166 -25 86.499c0 87.333 46 163.666 138 228.999v4h-23c-69.333 0 -104 37.667 -104 113v47l4 71h-6c-2.66699 -6.66699 -6.83398 -15.834 -12.501 -27.501s-19.834 -32.5 -42.501 -62.5
s-47.5 -56.167 -74.5 -78.5s-64.833 -42.833 -113.5 -61.5s-101 -28 -157 -28z" />
    <glyph glyph-name="Wcircumflex" unicode="&#x174;" horiz-adv-x="1935" 
d="M465 0l-330.002 1268c-8 30 -33.333 45 -76 45h-24v127h63c54.667 0 94.334 -7.83301 119.001 -23.5s43 -47.5 55 -95.5l250 -993l31 -154h4c12 53.333 25 104.666 39 153.999l317 1106h142l288 -1106l33 -154h4c9.33301 53.333 20.333 104.666 33 153.999l250 993
c12 48 30.333 79.833 55 95.5s64.334 23.5 119.001 23.5h64v-127h-23c-42 0 -67.333 -15 -76 -45l-332 -1268h-170l-268 1001l-47 213h-4c-16.667 -79.333 -33.667 -149.333 -51 -210l-295 -1004h-170zM740.998 1540l170 244h144l170 -244h-129l-111 166h-4l-111 -166h-129z
" />
    <glyph glyph-name="wcircumflex" unicode="&#x175;" horiz-adv-x="1708" 
d="M414 0l-295.001 861.999c-10.667 31.333 -34.667 47 -72 47h-27v121h72c50.667 0 86.5 -7.16699 107.5 -21.5s39.167 -45.5 54.5 -93.5l211 -653l31 -110h4c10.667 40.667 21.334 77.334 32.001 110.001l252 764h140l252 -764l32 -110h4c8 39.333 17.667 76 29 110
l213 653c15.333 48 33.5 79.167 54.5 93.5s56.833 21.5 107.5 21.5h72v-121h-29c-36.667 0 -60.667 -15.667 -72 -47l-295 -862h-153l-252 733l-31 111h-4c-9.33301 -39.333 -20.333 -76.333 -33 -111l-250 -733h-155zM611.999 1196l170 244h144l170 -244h-129l-111 166h-4
l-111 -166h-129z" />
    <glyph glyph-name="Ycircumflex" unicode="&#x176;" horiz-adv-x="1212" 
d="M535 0v627l-385 633c-22 35.333 -54.333 53 -97 53h-33v127h56c50.667 0 88.5 -6.83301 113.5 -20.5s52.5 -45.167 82.5 -94.5l244 -407l88 -162h4c28.667 57.333 58 111.333 88 162l244 407c30 49.333 57.667 80.833 83 94.5s63.333 20.5 114 20.5h55v-127h-33
c-42 0 -73.333 -17.667 -94 -53l-387 -633v-627h-143zM367 1540l170 244h143l170 -244h-129l-111 166h-4l-110 -166h-129z" />
    <glyph glyph-name="ycircumflex" unicode="&#x177;" horiz-adv-x="1103" 
d="M82 -227c0 -2.66699 6.16504 -9.83301 18.498 -21.5s31.5 -24 57.5 -37s52 -19.5 78 -19.5c80.667 0 144 56 190 168l61 141l-362 858c-13.333 31.333 -37.333 47 -72 47h-20v121h63c46.667 0 79.834 -7.16699 99.501 -21.5s39.167 -44.5 58.5 -90.5l264 -644l37 -110h4
c9.33301 39.333 21 76 35 110l254 644c18 46.667 37.167 77 57.5 91s54.5 21 102.5 21h63v-121h-20c-35.333 0 -59.333 -15.667 -72 -47l-444 -1077c-27.333 -66.667 -66.666 -119.167 -117.999 -157.5s-110.333 -57.5 -177 -57.5c-88.667 0 -162 31.333 -220 94l-4 6z
M306.998 1196l170 244h144l170 -244h-129l-111 166h-4l-111 -166h-129z" />
    <glyph glyph-name="Ydieresis" unicode="&#x178;" horiz-adv-x="1212" 
d="M535 0v627l-385 633c-22 35.333 -54.333 53 -97 53h-33v127h56c50.667 0 88.5 -6.83301 113.5 -20.5s52.5 -45.167 82.5 -94.5l244 -407l88 -162h4c28.667 57.333 58 111.333 88 162l244 407c30 49.333 57.667 80.833 83 94.5s63.333 20.5 114 20.5h55v-127h-33
c-42 0 -73.333 -17.667 -94 -53l-387 -633v-627h-143zM702 1608v176h121v-176h-121zM395 1608v176h121v-176h-121z" />
    <glyph glyph-name="Zacute" unicode="&#x179;" horiz-adv-x="1177" 
d="M39 0l0.000976562 100l772 1082l50 65c17.333 22 30.666 38.333 39.999 49l14 17v4c-23.333 -2.66699 -58 -4 -104 -4h-573c-30 0 -45 -15 -45 -45v-97h-134v144c0 44 10 75.833 30 95.5s51.667 29.5 95 29.5h908v-101l-770 -1081l-52 -65l-41 -50l-14 -16v-4
c23.333 2.66699 59 4 107 4h620c30 0 45 15 45 45v96h133v-143c0 -44 -9.83301 -75.833 -29.5 -95.5s-51.5 -29.5 -95.5 -29.5h-956zM537.001 1540l143 244h156l-179 -244h-120z" />
    <glyph glyph-name="zacute" unicode="&#x17a;" horiz-adv-x="1021" 
d="M80 0v90l579 723l82 94v4c-23.333 -2.66699 -57.333 -4 -102 -4h-377c-30 0 -45 -15 -45 -45v-80h-131v123c0 44 9.83301 75.833 29.5 95.5s51.5 29.5 95.5 29.5h715v-92l-578 -721l-86 -94v-4c24.667 2.66699 59.667 4 105 4h426c30 0 45 15 45 45v80h131v-123
c0 -44 -10 -75.833 -30 -95.5s-51.667 -29.5 -95 -29.5h-764zM467 1196l143 244h156l-178 -244h-121z" />
    <glyph glyph-name="Zdotaccent" unicode="&#x17b;" horiz-adv-x="1177" 
d="M39 0l0.000976562 100l772 1082l50 65c17.333 22 30.666 38.333 39.999 49l14 17v4c-23.333 -2.66699 -58 -4 -104 -4h-573c-30 0 -45 -15 -45 -45v-97h-134v144c0 44 10 75.833 30 95.5s51.667 29.5 95 29.5h908v-101l-770 -1081l-52 -65l-41 -50l-14 -16v-4
c23.333 2.66699 59 4 107 4h620c30 0 45 15 45 45v96h133v-143c0 -44 -9.83301 -75.833 -29.5 -95.5s-51.5 -29.5 -95.5 -29.5h-956zM530.001 1608v176h136v-176h-136z" />
    <glyph glyph-name="zdotaccent" unicode="&#x17c;" horiz-adv-x="1021" 
d="M80 0v90l579 723l82 94v4c-23.333 -2.66699 -57.333 -4 -102 -4h-377c-30 0 -45 -15 -45 -45v-80h-131v123c0 44 9.83301 75.833 29.5 95.5s51.5 29.5 95.5 29.5h715v-92l-578 -721l-86 -94v-4c24.667 2.66699 59.667 4 105 4h426c30 0 45 15 45 45v80h131v-123
c0 -44 -10 -75.833 -30 -95.5s-51.667 -29.5 -95 -29.5h-764zM461 1264v176h135v-176h-135z" />
    <glyph glyph-name="Zcaron" unicode="&#x17d;" horiz-adv-x="1177" 
d="M39 0l0.000976562 100l772 1082l50 65c17.333 22 30.666 38.333 39.999 49l14 17v4c-23.333 -2.66699 -58 -4 -104 -4h-573c-30 0 -45 -15 -45 -45v-97h-134v144c0 44 10 75.833 30 95.5s51.667 29.5 95 29.5h908v-101l-770 -1081l-52 -65l-41 -50l-14 -16v-4
c23.333 2.66699 59 4 107 4h620c30 0 45 15 45 45v96h133v-143c0 -44 -9.83301 -75.833 -29.5 -95.5s-51.5 -29.5 -95.5 -29.5h-956zM528.001 1540l-172 244h131l111 -164h4l111 164h129l-172 -244h-142z" />
    <glyph glyph-name="zcaron" unicode="&#x17e;" horiz-adv-x="1021" 
d="M80 0v90l579 723l82 94v4c-23.333 -2.66699 -57.333 -4 -102 -4h-377c-30 0 -45 -15 -45 -45v-80h-131v123c0 44 9.83301 75.833 29.5 95.5s51.5 29.5 95.5 29.5h715v-92l-578 -721l-86 -94v-4c24.667 2.66699 59.667 4 105 4h426c30 0 45 15 45 45v80h131v-123
c0 -44 -10 -75.833 -30 -95.5s-51.667 -29.5 -95 -29.5h-764zM457 1196l-172 244h131l110 -164h4l111 164h129l-172 -244h-141z" />
    <glyph glyph-name="longs" unicode="&#x17f;" horiz-adv-x="624" 
d="M180 0l0.000976562 913.002h-129v117h129v37c0 79.333 12.667 146.666 38 201.999s58.166 94.833 98.499 118.5s77.833 40 112.5 49s70 13.5 106 13.5l63 -4v-125c-12 2.66699 -28.333 4 -49 4c-24.667 0 -48 -3 -70 -9s-46.167 -16.833 -72.5 -32.5
s-47.5 -42.334 -63.5 -80.001s-24 -83.167 -24 -136.5v-1067h-139z" />
    <glyph glyph-name="florin" unicode="&#x192;" horiz-adv-x="708" 
d="M-47 -115l-61.998 3.99609l13 123c12 -2.66699 27.667 -4 47 -4s37.833 1.66699 55.5 5s38 10.5 61 21.5s43.167 25.333 60.5 43s33.166 43.334 47.499 77.001s23.5 72.834 27.5 117.501l41 473h-162v119h174l18 203c5.33301 64 19 120.667 41 170s46.667 87 74 113
s58.833 46.833 94.5 62.5s67 25.834 94 30.501s55.167 7 84.5 7l63 -4l-12 -125c-12 2.66699 -27.667 4 -47 4c-26 0 -50.333 -3 -73 -9s-47.667 -17.333 -75 -34s-50.5 -43.667 -69.5 -81s-31.167 -84 -36.5 -140l-19 -197h223v-119h-233l-41 -479
c-5.33301 -64 -19 -120.167 -41 -168.5s-47 -85.5 -75 -111.5s-60 -47.167 -96 -63.5s-67.333 -26.666 -94 -30.999s-54.334 -6.5 -83.001 -6.5z" />
    <glyph glyph-name="Scommaaccent" unicode="&#x218;" horiz-adv-x="1060" 
d="M76 180l88.0049 104.999c4 -4 9.83301 -10.167 17.5 -18.5s23.667 -22.666 48 -42.999s50.166 -38.166 77.499 -53.499s61.833 -29.333 103.5 -42s83.834 -19 126.501 -19c80.667 0 148.167 23.833 202.5 71.5s81.5 109.167 81.5 184.5
c0 65.333 -24.167 121.166 -72.5 167.499s-107.5 85.166 -177.5 116.499l-210 97c-70 33.333 -129.167 79.5 -177.5 138.5s-72.5 129.5 -72.5 211.5c0 102.667 40.833 189.667 122.5 261s187.5 107 317.5 107c54.667 0 109.667 -6.83301 165 -20.5
s106.5 -40.167 153.5 -79.5s70.5 -88.333 70.5 -147v-103h-135v68c0 42 -25 77.333 -75 106s-109 43 -177 43c-90 0 -161.667 -22.5 -215 -67.5s-80 -99.5 -80 -163.5c0 -39.333 10.167 -75.166 30.5 -107.499s47.333 -59 81 -80s71.667 -42.5 114 -64.5
s85.666 -41.833 129.999 -59.5s87.666 -39.5 129.999 -65.5s80.166 -53.667 113.499 -83s60.333 -66.833 81 -112.5s31 -97.167 31 -154.5c0 -112 -40 -206.333 -120 -283s-185.667 -115 -317 -115c-54.667 0 -107.834 7.16699 -159.501 21.5s-94.5 31.5 -128.5 51.5
s-64.333 39.833 -91 59.5s-46.334 37.167 -59.001 52.5zM469.005 -129.001l127 0.000976562c9.33301 -32.667 14 -65.334 14 -98.001c0 -49.333 -16.333 -110.333 -49 -183h-108c26 65.333 39 120 39 164c0 38.667 -7.66699 77.667 -23 117z" />
    <glyph glyph-name="scommaaccent" unicode="&#x219;" horiz-adv-x="901" 
d="M59 156l80.001 95.999c2.66699 -4 7.16699 -9.5 13.5 -16.5s19.666 -19.667 39.999 -38s41.833 -34.333 64.5 -48s52 -26 88 -37s73.333 -16.5 112 -16.5c61.333 0 112.833 14.333 154.5 43s62.5 69 62.5 121c0 40.667 -19.833 76.167 -59.5 106.5
s-87.834 56.333 -144.501 78s-113.334 44.834 -170.001 69.501s-104.834 59.167 -144.501 103.5s-59.5 97.166 -59.5 158.499c0 90 34.167 159 102.5 207s156.5 72 264.5 72c30 0 61.333 -3.16699 94 -9.5s66.167 -16 100.5 -29s62.666 -32.333 84.999 -58
s33.5 -55.834 33.5 -90.501v-88h-131v49c0 34 -19.167 60 -57.5 78s-78.5 27 -120.5 27c-152.667 0 -229 -50 -229 -150c0 -42 19.667 -78 59 -108s87.333 -55.667 144 -77s113.334 -44.166 170.001 -68.499s104.834 -59.166 144.501 -104.499s59.5 -99.333 59.5 -162
c0 -84.667 -34.167 -154 -102.5 -208s-154.166 -81 -257.499 -81c-151.333 0 -275.666 51.333 -372.999 154zM383.001 -129.001l127 0.000976562c9.33301 -32.667 14 -65.334 14 -98.001c0 -49.333 -16.333 -110.333 -49 -183h-108c26 65.333 39 120 39 164
c0 38.667 -7.66699 77.667 -23 117z" />
    <glyph glyph-name="uni021A" unicode="&#x21a;" horiz-adv-x="1269" 
d="M563 0v1313h-356c-30 0 -45 -15 -45 -45v-97h-131v152c0 44 8.5 74.5 25.5 91.5s47.167 25.5 90.5 25.5h975c44 0 74.5 -8.5 91.5 -25.5s25.5 -47.5 25.5 -91.5v-152h-133v97c0 30 -15 45 -45 45h-354v-1313h-144zM567 -129l127 0.000976562
c9.33301 -32.667 14.333 -65.334 15 -98.001c0 -49.333 -16.667 -110.333 -50 -183h-108c26 65.333 39 120 39 164c0 38.667 -7.66699 77.667 -23 117z" />
    <glyph glyph-name="uni021B" unicode="&#x21b;" horiz-adv-x="686" 
d="M190 375v538.001h-135v117h138v285h137v-285h258v-117h-258v-524c0 -46.667 5.83301 -87 17.5 -121s25.667 -60.5 42 -79.5s35.333 -34 57 -45s41.334 -18.167 59.001 -21.5s36.167 -5 55.5 -5l47 4v-125c-16.667 -2.66699 -36.334 -4 -59.001 -4
c-28.667 0 -56.667 2 -84 6s-58.5 13.833 -93.5 29.5s-65 36.5 -90 62.5s-46.5 63.667 -64.5 113s-27 106.666 -27 171.999zM328 -128.999l126.999 0.000976562c9.33301 -32.667 14 -65.334 14 -98.001c0 -49.333 -16.333 -110.333 -49 -183h-109c26 65.333 39 120 39 164
c0.666992 38.667 -6.66602 77.667 -21.999 117z" />
    <glyph glyph-name="circumflex" unicode="&#x2c6;" horiz-adv-x="962" 
d="M240 1540l170 244h143l170 -244h-129l-111 166h-4l-110 -166h-129z" />
    <glyph glyph-name="caron" unicode="&#x2c7;" horiz-adv-x="970" 
d="M410 1540l-172 244h131l110 -164h4l111 164h129l-172 -244h-141z" />
    <glyph glyph-name="breve" unicode="&#x2d8;" horiz-adv-x="993" 
d="M477 1534c-62.667 0 -117.167 19.5 -163.5 58.5s-69.5 92.5 -69.5 160.5v31h106v-27c0 -42 12 -73.667 36 -95s54.333 -32 91 -32c35.333 0 65 10.667 89 32s36 53 36 95v27h107v-31c0 -68 -23 -121.5 -69 -160.5s-100.333 -58.5 -163 -58.5z" />
    <glyph glyph-name="dotaccent" unicode="&#x2d9;" horiz-adv-x="456" 
d="M160 1608v176h135v-176h-135z" />
    <glyph glyph-name="ring" unicode="&#x2da;" horiz-adv-x="770" 
d="M385.5 1518c-42.333 0 -78.333 13.5 -108 40.5s-44.5 61.667 -44.5 104s14.833 77.166 44.5 104.499s65.667 41 108 41s78.166 -13.667 107.499 -41s44 -62.166 44 -104.499s-14.667 -77 -44 -104s-65.166 -40.5 -107.499 -40.5zM385 1595c19.333 0 35.5 6.5 48.5 19.5
s19.5 29.167 19.5 48.5c0 20.667 -6.5 37.5 -19.5 50.5s-29.167 19.5 -48.5 19.5s-35.5 -6.5 -48.5 -19.5s-19.5 -29.833 -19.5 -50.5c0 -19.333 6.16699 -35.5 18.5 -48.5s28.833 -19.5 49.5 -19.5z" />
    <glyph glyph-name="ogonek" unicode="&#x2db;" horiz-adv-x="702" 
d="M215 -231c0 48 15.998 94.333 47.998 139s63.667 78 95 100l48 31l108 -23c-12 -8 -27.667 -19.5 -47 -34.5s-44.666 -41.667 -75.999 -80s-47 -73.166 -47 -104.499c0 -27.333 10.667 -49.5 32 -66.5s42 -26.833 62 -29.5l33 -6l-31 -115
c-5.33301 0 -13.166 0.666992 -23.499 2s-28.333 6.16602 -54 14.499s-48.5 18.666 -68.5 30.999s-38.167 30.833 -54.5 55.5s-24.5 53.334 -24.5 86.001z" />
    <glyph glyph-name="tilde" unicode="&#x2dc;" horiz-adv-x="1007" 
d="M182 1546c0 160 63.666 240.001 190.999 240.001c39.333 0 73.666 -12.333 102.999 -37s56.333 -49.334 81 -74.001s49.334 -37 74.001 -37c54.667 0 82 47.333 82 142h108c0 -160 -63.333 -240 -190 -240c-39.333 0 -74.166 12.333 -104.499 37s-57.333 49 -81 73
s-48.5 36 -74.5 36c-54.667 0 -82 -46.667 -82 -140h-107z" />
    <glyph glyph-name="hungarumlaut" unicode="&#x2dd;" horiz-adv-x="1056" 
d="M487 1540l144 244h155l-178 -244h-121zM215 1540l135 244h133l-137 -244h-131z" />
    <glyph glyph-name="uni1E9E" unicode="&#x1e9e;" horiz-adv-x="1271" 
d="M70 0l-0.000976562 127.001h88c30 0 45 15 45 45v885c0 109.333 36.833 200.5 110.5 273.5s165.167 109.5 274.5 109.5h540v-99l-321 -456l-53 -72v-4h63c104 -4 191.833 -45.333 263.5 -124s107.5 -170.334 107.5 -275.001c0 -113.333 -40.333 -210 -121 -290
s-177.667 -120 -291 -120h-194v127h186c79.333 0 144.5 27.667 195.5 83s76.5 121.833 76.5 199.5s-25.167 143.834 -75.5 198.501s-114.5 82 -192.5 82h-186v101l278 401c40.667 61.333 70.667 101.666 90 120.999v4c-9.33301 -2.66699 -38.666 -4 -87.999 -4h-268
c-74 0 -134.5 -24.333 -181.5 -73s-70.5 -109 -70.5 -181v-934c0 -44 -9.83301 -75.833 -29.5 -95.5s-51.5 -29.5 -95.5 -29.5h-151z" />
    <glyph glyph-name="uni2000" unicode="&#x2000;" horiz-adv-x="903" 
 />
    <glyph glyph-name="uni2001" unicode="&#x2001;" horiz-adv-x="1808" 
 />
    <glyph glyph-name="uni2002" unicode="&#x2002;" horiz-adv-x="903" 
 />
    <glyph glyph-name="uni2003" unicode="&#x2003;" horiz-adv-x="1808" 
 />
    <glyph glyph-name="uni2004" unicode="&#x2004;" horiz-adv-x="602" 
 />
    <glyph glyph-name="uni2005" unicode="&#x2005;" horiz-adv-x="450" 
 />
    <glyph glyph-name="uni2006" unicode="&#x2006;" horiz-adv-x="301" 
 />
    <glyph glyph-name="uni2007" unicode="&#x2007;" horiz-adv-x="301" 
 />
    <glyph glyph-name="uni2008" unicode="&#x2008;" horiz-adv-x="225" 
 />
    <glyph glyph-name="uni2009" unicode="&#x2009;" horiz-adv-x="360" 
 />
    <glyph glyph-name="uni200A" unicode="&#x200a;" horiz-adv-x="100" 
 />
    <glyph glyph-name="uni2010" unicode="&#x2010;" horiz-adv-x="884" 
d="M152 518v127h581v-127h-581z" />
    <glyph glyph-name="uni2011" unicode="&#x2011;" horiz-adv-x="884" 
d="M152 518v127h581v-127h-581z" />
    <glyph glyph-name="figuredash" unicode="&#x2012;" horiz-adv-x="884" 
d="M152 518v127h581v-127h-581z" />
    <glyph glyph-name="endash" unicode="&#x2013;" horiz-adv-x="1314" 
d="M145 522v119h1024v-119h-1024z" />
    <glyph glyph-name="emdash" unicode="&#x2014;" horiz-adv-x="1724" 
d="M145 522v119h1434v-119h-1434z" />
    <glyph glyph-name="quoteleft" unicode="&#x2018;" horiz-adv-x="434" 
d="M104 1106l115 352h111l-80 -352h-146z" />
    <glyph glyph-name="quoteright" unicode="&#x2019;" horiz-adv-x="434" 
d="M104 1108l80 352h146l-115 -352h-111z" />
    <glyph glyph-name="quotesinglbase" unicode="&#x201a;" horiz-adv-x="434" 
d="M184 168h146l-115 -352h-111z" />
    <glyph glyph-name="quotedblleft" unicode="&#x201c;" horiz-adv-x="675" 
d="M346 1106l115 352h110l-79 -352h-146zM104 1106l115 352h111l-80 -352h-146z" />
    <glyph glyph-name="quotedblright" unicode="&#x201d;" horiz-adv-x="675" 
d="M346 1108l80 352h145l-114 -352h-111zM104 1108l80 352h146l-115 -352h-111z" />
    <glyph glyph-name="quotedblbase" unicode="&#x201e;" horiz-adv-x="675" 
d="M346 -184l80 352h145l-114 -352h-111zM184 168h146l-115 -352h-111z" />
    <glyph glyph-name="dagger" unicode="&#x2020;" horiz-adv-x="743" 
d="M299 -102v1013h-240v119h240v410h137v-410h248v-119h-248v-1013h-137z" />
    <glyph glyph-name="daggerdbl" unicode="&#x2021;" horiz-adv-x="743" 
d="M299 -102v469h-240v118h240v426h-240v119h240v410h137v-410h248v-119h-248v-426h248v-118h-248v-469h-137z" />
    <glyph glyph-name="bullet" unicode="&#x2022;" horiz-adv-x="899" 
d="M450.5 303c-80.333 0 -149.166 28.667 -206.499 86s-86 126.333 -86 207s28.667 149.667 86 207s126.166 86 206.499 86s148.833 -28.667 205.5 -86s85 -126.333 85 -207s-28.333 -149.667 -85 -207s-125.167 -86 -205.5 -86z" />
    <glyph glyph-name="ellipsis" unicode="&#x2026;" horiz-adv-x="1673" 
d="M1239 0v164h158v-164h-158zM758 0v164h157v-164h-157zM276 0v164h158v-164h-158z" />
    <glyph glyph-name="uni202F" unicode="&#x202f;" horiz-adv-x="360" 
 />
    <glyph glyph-name="perthousand" unicode="&#x2030;" horiz-adv-x="2164" 
d="M414 895c-79.333 0 -146.999 27.667 -202.999 83s-84 122.666 -84 201.999c0 78 28 144.833 84 200.5s123.5 83.5 202.5 83.5s146.833 -28 203.5 -84s85 -122.667 85 -200c0 -79.333 -27.833 -146.666 -83.5 -201.999s-123.834 -83 -204.501 -83zM139.001 0l1098 1440
h145l-1095 -1440h-148zM413.501 1010c46.333 0 86 16.333 119 49s49.5 73 49.5 121c0 46.667 -16.5 86.667 -49.5 120s-72.667 50 -119 50s-85.5 -16.833 -117.5 -50.5s-48 -73.5 -48 -119.5c0 -48 16 -88.333 48 -121s71.167 -49 117.5 -49zM1507 258
c0 79.333 28 147 84 203s123.667 84 203 84s147.333 -28 204 -84s85 -123.667 85 -203c0 -78 -28.333 -144.667 -85 -200s-124.667 -83 -204 -83s-147 27.667 -203 83s-84 122 -84 200zM819.001 258c0 79.333 28 147 84 203s123.667 84 203 84s147.333 -28 204 -84
s85 -123.667 85 -203c0 -78 -28.333 -144.667 -85 -200s-124.667 -83 -204 -83s-147 27.667 -203 83s-84 122 -84 200zM1630 260c0 -48 15.667 -88.333 47 -121s70.333 -49 117 -49s86.334 16.333 119.001 49s49 73 49 121c0 46.667 -16.333 86.667 -49 120
s-72.334 50 -119.001 50s-85.667 -16.667 -117 -50s-47 -73.333 -47 -120zM942.001 260c0 -48 15.667 -88.333 47 -121s70.333 -49 117 -49s86.334 16.333 119.001 49s49 73 49 121c0 46.667 -16.333 86.667 -49 120s-72.334 50 -119.001 50s-85.667 -16.667 -117 -50
s-47 -73.333 -47 -120z" />
    <glyph glyph-name="guilsinglleft" unicode="&#x2039;" horiz-adv-x="702" 
d="M414 158l-336 420l336 421h149l-336 -421l336 -420h-149z" />
    <glyph glyph-name="guilsinglright" unicode="&#x203a;" horiz-adv-x="702" 
d="M135 158l336 420l-336 421h152l336 -421l-336 -420h-152z" />
    <glyph glyph-name="fraction" unicode="&#x2044;" horiz-adv-x="851" 
d="M57 0l609 1440h129l-609 -1440h-129z" />
    <glyph glyph-name="uni205F" unicode="&#x205f;" horiz-adv-x="450" 
 />
    <glyph glyph-name="Euro" unicode="&#x20ac;" horiz-adv-x="1208" 
d="M80 545l-0.00390625 104.001h117c-2.66699 24.667 -4 48.667 -4 72l4 94h-117v105h135c40.667 161.333 123.834 292.333 249.501 393s271.834 151 438.501 151c32.667 0 64.834 -2 96.501 -6s54.834 -8 69.501 -12l23 -6l-33 -133
c-49.333 15.333 -102 22.666 -158 21.999c-130 0 -242.333 -37.167 -337 -111.5s-159.667 -173.5 -195 -297.5h620l-20 -105h-623c-5.33301 -27.333 -8 -57.333 -8 -90l4 -76h596l-18 -104h-553c31.333 -130 95.833 -234.833 193.5 -314.5s212.5 -119.5 344.5 -119.5
c31.333 0 62.333 2.33301 93 7s53.667 9 69 13l23 8l32 -131c-62.667 -22 -135.667 -33 -219 -33c-172 0 -321.167 53 -447.5 159s-207.833 243 -244.5 411h-131z" />
    <glyph glyph-name="trademark" unicode="&#x2122;" horiz-adv-x="1998" 
d="M858 543l-0.000976562 104h51c13.333 0 21 7 23 21l59 772h107l235 -514c12 -26 21.667 -54 29 -84h4c6.66699 30 16.334 58 29.001 84l235 514h107l59 -772c1.33301 -13.333 9 -20.333 23 -21h51v-104h-88c-36.667 0 -61.5 6.5 -74.5 19.5s-21.167 37.833 -24.5 74.5
l-41 514l3 59h-5l-229 -499h-94l-230 499h-4l2 -59l-41 -514c-2.66699 -36.667 -10.5 -61.5 -23.5 -74.5s-37.833 -19.5 -74.5 -19.5h-88zM407.999 543l-0.00195312 790h-193c-13.333 0 -20 -6.66699 -20 -20v-62h-107v95c0 35.333 6.83301 59.833 20.5 73.5
s38.834 20.5 75.501 20.5h566c36.667 0 61.834 -6.83301 75.501 -20.5s20.5 -38.167 20.5 -73.5v-95h-107v62c0 13.333 -6.66699 20 -20 20h-195v-790h-116z" />
    <glyph glyph-name="minus" unicode="&#x2212;" 
d="M102 522v119h1037v-119h-1037z" />
    <glyph glyph-name="infinity" unicode="&#x221e;" horiz-adv-x="1021" 
d="M512 360c-96.667 0 -179.833 34.832 -249.5 104.499s-104.5 153.167 -104.5 250.5c0 98 34.5 181.167 103.5 249.5s152.5 102.5 250.5 102.5s181.167 -34.167 249.5 -102.5s102.5 -151.666 102.5 -249.999s-34.167 -182 -102.5 -251s-151.5 -103.5 -249.5 -103.5z" />
    <glyph glyph-name="approxequal" unicode="&#x2248;" 
d="M186 657l-66.999 91c94 94 193.667 141 299 141c68 0 141.333 -24 220 -72s140.334 -72 185.001 -72c83.333 0 160.666 38.333 231.999 115l67 -90c-91.333 -94 -191 -141 -299 -141c-68 0 -141.333 23.833 -220 71.5s-140.334 71.5 -185.001 71.5
c-78 0 -155.333 -38.333 -232 -115zM186.001 301l-67 90c94 94 193.667 141 299 141c68 0 141.333 -23.833 220 -71.5s140.334 -71.5 185.001 -71.5c80.667 0 158 38.333 232 115l67 -90c-91.333 -94 -191 -141.333 -299 -142c-68 0 -141.333 24 -220 72
s-140.334 72 -185.001 72c-78 0 -155.333 -38.333 -232 -115z" />
    </font>
</defs>
</svg>
